Основание: Осман / Kurulus: Osman (2021) WEB-DLRip [H.264/1080p-LQ] (сезон 3, серии 1-12 (65-77) из ??) AveTurk, turok1990 (обновляемая)

Ответить на тему
 
Автор Сообщение

Luka_2021 ®

Стаж: 4 месяца 27 дней

Сообщений: 83

Создавать темы 25-Дек-2021 01:29

[Цитировать]

- Основание: Осман / Kuruluş: Osman (2021) WEB-DLRip [H.264/1080p-LQ]
(сезон 3, серии 1-12 (65-77) из ??)
- Производство: Турция / Bozdağ Film, Tekden Film
Жанр: боевик, драма, приключения, военный, история
Режиссер: Ахмет Йильмаз
Актеры: Бурак Озчивит, Дидем Балчин, Йылдыз Чагры Атиксой, Серхат Кылыч, Эркан Авчи, Седа Йылдыз, Йылдырай Шахинлер, Озге Торер, Бурак Челик, Эмре Башалак, Чагры Шенсой и др.
Описание:
Сериал посвящен жизни Османа Бея - сына Эртугрула Гази и основателя Османской империи.
Kinopoisk
Релиз от: Ay Oasis
Продолжительность: ~ 02:21:00 серия
Качество видео: WEB-DLRip
Перевод: Двуголосый любительский (AveTurk), одноголосый любительский (turok1990)
Язык озвучки: Русский, турецкий
Видео: AVC/H.264, 1920x1080 (16:9), ~2040 kbps
Аудио #1: AAC, 2 ch, 132 Kbps - (AveTurk)
Аудио #2: AAC, 2 ch, 128 Kbps - (turok1990)
Аудио #3: AAC, 2 ch, 128 Kbps - турецкий
MediaInfo:
General
Unique ID : 52453409406374898901224289306531654163 (0x277628C06B7BEEC00790B34610F0EA13)
Complete name : F:\Kurulus Osman.s03.WEB-DLRip1080p\Kurulus Osman.s03.e01.(e65).WEB-DLRip1080p.mkv
Format : Matroska
Format version : Version 4
File size : 2.40 GiB
Duration : 2 h 21 min
Overall bit rate : 2 433 kb/s
Encoded date : UTC 2021-10-08 22:39:04
Writing application : mkvmerge v56.1.0 ('My Friend') 64-bit
Writing library : libebml v1.4.2 + libmatroska v1.6.4
Video
ID : 3
Format : AVC
Format/Info : Advanced Video Codec
Format profile : [email protected]
Format settings : CABAC / 3 Ref Frames
Format settings, CABAC : Yes
Format settings, Reference fra : 3 frames
Codec ID : V_MPEG4/ISO/AVC
Duration : 2 h 21 min
Bit rate : 2 042 kb/s
Width : 1 920 pixels
Height : 1 080 pixels
Display aspect ratio : 16:9
Frame rate mode : Constant
Frame rate : 25.000 FPS
Color space : YUV
Chroma subsampling : 4:2:0
Bit depth : 8 bits
Scan type : Progressive
Bits/(Pixel*Frame) : 0.039
Stream size : 2.01 GiB (84%)
Writing library : x264 core 155 r2901 7d0ff22
Default : Yes
Forced : No
Color range : Limited
Color primaries : BT.709
Transfer characteristics : BT.709
Matrix coefficients : BT.709
Audio #1
ID : 1
Format : AAC LC
Format/Info : Advanced Audio Codec Low Complexity
Codec ID : A_AAC-2
Duration : 2 h 21 min
Bit rate : 132 kb/s
Channel(s) : 2 channels
Channel layout : L R
Sampling rate : 44.1 kHz
Frame rate : 43.066 FPS (1024 SPF)
Compression mode : Lossy
Stream size : 132 MiB (5%)
Title : turok1990
Language : Russian
Default : Yes
Forced : No
Audio #2
ID : 2
Format : AAC LC
Format/Info : Advanced Audio Codec Low Complexity
Codec ID : A_AAC-2
Duration : 2 h 21 min
Bit rate : 128 kb/s
Channel(s) : 2 channels
Channel layout : L R
Sampling rate : 44.1 kHz
Frame rate : 43.066 FPS (1024 SPF)
Compression mode : Lossy
Stream size : 130 MiB (5%)
Title : AveTurk
Language : Russian
Default : No
Forced : No
Audio #3
ID : 4
Format : AAC LC
Format/Info : Advanced Audio Codec Low Complexity
Codec ID : A_AAC-2
Duration : 2 h 21 min
Bit rate : 128 kb/s
Channel(s) : 2 channels
Channel layout : L R
Sampling rate : 44.1 kHz
Frame rate : 43.066 FPS (1024 SPF)
Compression mode : Lossy
Delay relative to video : 12 ms
Stream size : 129 MiB (5%)
Title : Original
Language : Turkish
Default : No
Forced : No
Скриншоты:
Время раздачи: с 11:00 до 3:00


Последний раз редактировалось: Luka_2021 (2021-12-31 03:04), всего редактировалось 1 раз
[Профиль] [ЛС]

Luka_2021 ®

Стаж: 4 месяца 27 дней

Сообщений: 83

Создавать темы 31-Дек-2021 03:00 (спустя 6 дней)

[Цитировать]

Релиз обновлён, добавлена 77 серия.
[Профиль] [ЛС]
Показать сообщения:    
Ответить на тему

Текущее время: 24-Янв 07:11

Часовой пояс: UTC + 3



Вы не можете начинать темы
Вы не можете отвечать на сообщения
Вы не можете редактировать свои сообщения
Вы не можете удалять свои сообщения
Вы не можете голосовать в опросах
Вы не можете прикреплять файлы к сообщениям
Вы не можете скачивать файлы