Count Basie - In A Mellotone (1959) 2011, Candid [FLAC|Lossless|tracks + .cue] <Swing, Big Band>

Ответить на тему
 
Автор Сообщение

Luka_2021 ®

Стаж: 4 месяца 27 дней

Сообщений: 83

Создавать темы 15-Дек-2021 14:25

[Цитировать]

- Count Basie - In A Mellotone (1959) 2011, Candid - Жанр: Swing, Big Band
Издание: Candid - 708857955824
Продолжительность: 00:51:22
Кодек: FLAC (tracks+.cue)
Битрейт: Lossless
Источник (релизер): LolaMontes
Страна-производитель диска: USA
Наличие сканов в содержимом раздачи: да
Треклист:
01. Shiny Stockings [5:18]
02. H.R.H. (Her Royal Highness) [2:37]
03. Bag-A' Bones [2:39]
04. In A Mellotone [6:11]
05. Midgets [9:14]
06. Whirly Bird [4:08]
07. Basie Boogie [2:48]
08. The Deacon [6:17]
09. Cute [4:08]
10. Old Man River [8:01]
Отчёт EAC:
Exact Audio Copy V1.0 beta 3 from 29. August 2011
EAC extraction logfile from 14. July 2014, 10:26
Count Basie / In A Mellotone
Used drive : HL-DT-STDVD+-RW GH82N Adapter: 0 ID: 2
Read mode : Secure
Utilize accurate stream : Yes
Defeat audio cache : Yes
Make use of C2 pointers : No
Read offset correction : 667
Overread into Lead-In and Lead-Out : No
Fill up missing offset samples with silence : Yes
Delete leading and trailing silent blocks : No
Null samples used in CRC calculations : Yes
Used interface : Native Win32 interface for Win NT & 2000
Gap handling : Appended to previous track
Used output format : User Defined Encoder
Selected bitrate : 1024 kBit/s
Quality : High
Add ID3 tag : No
Command line compressor : C:\Program Files (x86)\Exact Audio Copy\Flac\flac.exe
Additional command line options : -8 -V -T "ARTIST=%artist%" -T "TITLE=%title%" -T "ALBUM=%albumtitle%" -T "DATE=%year%" -T "TRACKNUMBER=%tracknr%" -T "GENRE=%genre%" -T "COMMENT=%comment%" -T "BAND=%albuminterpret%" -T "ALBUMARTIST=%albuminterpret%" -T "COMPOSER=%composer%" %haslyrics%--tag-from-file=LYRICS="%lyricsfile%"%haslyrics% -T "DISCNUMBER=%cdnumber%" -T "TOTALDISCS=%totalcds%" -T "TOTALTRACKS=%numtracks%" %hascover%--picture="%coverfile%"%hascover% %source% -o %dest%
TOC of the extracted CD
Track | Start | Length | Start sector | End sector
---------------------------------------------------------
1 | 0:00.33 | 5:18.00 | 33 | 23882
2 | 5:18.33 | 2:37.25 | 23883 | 35682
3 | 7:55.58 | 2:38.50 | 35683 | 47582
4 | 10:34.33 | 6:11.25 | 47583 | 75432
5 | 16:45.58 | 9:14.25 | 75433 | 117007
6 | 26:00.08 | 4:08.25 | 117008 | 135632
7 | 30:08.33 | 2:48.25 | 135633 | 148257
8 | 32:56.58 | 6:16.50 | 148258 | 176507
9 | 39:13.33 | 4:08.00 | 176508 | 195107
10 | 43:21.33 | 8:01.00 | 195108 | 231182
Track 1
Filename C:\Rips\Count Basie - In A Mellotone\01 Shiny Stockings.wav
Pre-gap length 0:00:02.33
Peak level 57.5 %
Extraction speed 1.9 X
Track quality 100.0 %
Copy CRC CA0910E1
Accurately ripped (confidence 4) [00C4DFF6] (AR v2)
Copy OK
Track 2
Filename C:\Rips\Count Basie - In A Mellotone\02 H.R.H. (Her Royal Highness).wav
Peak level 38.3 %
Extraction speed 1.6 X
Track quality 99.9 %
Copy CRC D03EC284
Accurately ripped (confidence 4) [C16E9ADF] (AR v2)
Copy OK
Track 3
Filename C:\Rips\Count Basie - In A Mellotone\03 Bag-A-Bones.wav
Peak level 40.4 %
Extraction speed 1.7 X
Track quality 99.9 %
Copy CRC 9E0FA477
Accurately ripped (confidence 4) [A4E3A214] (AR v2)
Copy OK
Track 4
Filename C:\Rips\Count Basie - In A Mellotone\04 In A Mellotone.wav
Peak level 43.0 %
Extraction speed 2.5 X
Track quality 100.0 %
Copy CRC A0CB660B
Accurately ripped (confidence 4) [2B06B104] (AR v2)
Copy OK
Track 5
Filename C:\Rips\Count Basie - In A Mellotone\05 Midgets.wav
Peak level 50.1 %
Extraction speed 2.9 X
Track quality 100.0 %
Copy CRC DCE53851
Accurately ripped (confidence 4) [CB206813] (AR v2)
Copy OK
Track 6
Filename C:\Rips\Count Basie - In A Mellotone\06 Whirly Bird.wav
Peak level 54.1 %
Extraction speed 2.6 X
Track quality 99.9 %
Copy CRC 5F346FDC
Accurately ripped (confidence 4) [F2552086] (AR v2)
Copy OK
Track 7
Filename C:\Rips\Count Basie - In A Mellotone\07 Basie Boogie.wav
Peak level 41.5 %
Extraction speed 2.4 X
Track quality 99.9 %
Copy CRC 17607434
Accurately ripped (confidence 4) [2130A197] (AR v2)
Copy OK
Track 8
Filename C:\Rips\Count Basie - In A Mellotone\08 The Deacon.wav
Peak level 38.6 %
Extraction speed 3.3 X
Track quality 100.0 %
Copy CRC EF9AD99B
Accurately ripped (confidence 4) [428C3A6E] (AR v2)
Copy OK
Track 9
Filename C:\Rips\Count Basie - In A Mellotone\09 Cute.wav
Peak level 36.2 %
Extraction speed 2.9 X
Track quality 99.9 %
Copy CRC 71115DB9
Accurately ripped (confidence 4) [4662C4CC] (AR v2)
Copy OK
Track 10
Filename C:\Rips\Count Basie - In A Mellotone\10 Old Man River.wav
Peak level 54.0 %
Extraction speed 3.8 X
Track quality 100.0 %
Copy CRC E478DAFF
Accurately ripped (confidence 4) [888F1D28] (AR v2)
Copy OK
All tracks accurately ripped
No errors occurred
End of status report
==== Log checksum 75E0F226E8676AACE34777C9DAD4EC15F06FCFB7C46680301B085C9F10C735EC ====
Состав
Thad Jones, Joe Newman, Snooky Young, Wendell Culley - trumpet
Henry Coker, Benny Powell, Al Grey - trombone
Marshall Royal - clarinet, alto sax;
Frank Wess - flute, alto sax, tenor sax;
Frank Foster, Billy Mitchell - tenor sax;
Charlie Fowles - flute, bass clarinet, baritone sax
Count Basie - piano
Freddie Green - guitar
Eddie Jones - bass
Sonny Payne - drums
Rec.: Theatre Beaulier, Lausanne, Switzerland, February 3, 1959 (1-7, 10); Kongresshaus, Zurich, Switzerland, February 6, 1959 (8, 9).Время раздачи: c 15:00 до 22:00 (минимум до появления первых 3-5 скачавших)
[Профиль] [ЛС]
Показать сообщения:    
Ответить на тему

Текущее время: 24-Янв 07:41

Часовой пояс: UTC + 3



Вы не можете начинать темы
Вы не можете отвечать на сообщения
Вы не можете редактировать свои сообщения
Вы не можете удалять свои сообщения
Вы не можете голосовать в опросах
Вы не можете прикреплять файлы к сообщениям
Вы не можете скачивать файлы