Расследования авиакатастроф / Mayday / Air Crash Investigation (Сезоны 01-21 из ??) [2003-2021 гг., Документальный, HDTVRip на КПК] DVO

Ответить на тему
 
Автор Сообщение

Azazel ®

Стаж: 8 лет 8 месяцев

Сообщений: 16

Создавать темы 25-Окт-2021 11:59

[Цитировать]

Расследования авиакатастроф / Mayday / Air Crash Investigation
Год выпуска: 2003 - 2021
Страна: Канада
Телеканал: National Geographic
Жанр: Документальный
Продолжительность: ~ 00:45:00
Перевод: Профессиональный (двухголосый закадровый)
Субтитры: нет
Оригинальная аудиодорожка: нет
Режиссер: Тим Волочатюк / Tim Wolochatiuk, Mark Mainguy, Джордж Д’Амато / George D'Amato
В ролях: Джонатан Арис, Стивен Богерт, Грегори Файт, John Cox, Джон Дж. Нэнс, Bob Benson, Ron Schleede, Bob Macintosh, David Learmount, Richard Rodriguez
Описание: Реконструкция реальных воздушных катастроф, интервью с авиационным специалистами и очевидцами происшествий.

Релиз от:
Рип от: Страна
Сезон 01:
Качество: HDTVRip
Формат: MP4
Видео: AVC, 480x360, 670 kbps, 25,000 fps
Аудио: AAC, 2 ch, 48,0 kHz, 128 Kbps
Список выпусков:
1-01 Незапертая дверь в смерть (Unlocking Disaster)
1-02 Наперегонки с бурей (Racing the Storm)
1-03 Полет с пустым баком (Flying On Empty)
1-04 Пожар на борту (Fire On Board)
1-05 Полет вслепую (Flying Blind)
1-06 Пике над океаном (Cutting Corners)
ТХ/MediaInfo:
Общее
Полное имя : D:\Кино\Air Crash Investigation\01\1-01 Незапертая дверь в смерть (Unlocking Disaster).mp4
Формат : MPEG-4
Профиль формата : Base Media
Идентификатор кодека : isom
Размер файла : 256 Мбайт
Продолжительность : 44 м.
Режим общего битрейта : Переменный
Общий поток : 802 Кбит/сек
Дата кодирования : UTC 2021-10-20 11:49:22
Дата пометки : UTC 2021-10-20 11:49:22
Видео
Идентификатор : 1
Формат : AVC
Формат/Информация : Advanced Video Codec
Профиль формата : [email protected]
Параметр CABAC формата : Да
Параметр ReFrames формата : 9 кадров
Идентификатор кодека : avc1
Идентификатор кодека/Информация : Advanced Video Coding
Продолжительность : 44 м.
Битрейт : 670 Кбит/сек
Максимальный битрейт : 2983 Кбит/сек
Ширина : 480 пикселей
Высота : 360 пикселей
Соотношение сторон : 4:3
Режим частоты кадров : Постоянный
Частота кадров : 25,000 кадров/сек
Цветовое пространство : YUV
Субдискретизация насыщенности : 4:2:0
Битовая глубина : 8 бит
Тип развёртки : Прогрессивная
Бит/(Пиксели*Кадры) : 0.155
Размер потока : 214 Мбайт (84%)
Библиотека кодирования : x264 core 125 r2200 999b753
Настройки программы : cabac=1 / ref=9 / deblock=1:-1:-1 / analyse=0x3:0x133 / me=umh / subme=8 / psy=1 / psy_rd=1.00:0.10 / mixed_ref=1 / me_range=24 / chroma_me=1 / trellis=2 / 8x8dct=1 / cqm=0 / deadzone=21,11 / fast_pskip=0 / chroma_qp_offset=-3 / threads=6 / lookahead_threads=1 / sliced_threads=0 / nr=0 / decimate=1 / interlaced=0 / bluray_compat=0 / constrained_intra=0 / bframes=8 / b_pyramid=2 / b_adapt=2 / b_bias=0 / direct=3 / weightb=1 / open_gop=0 / weightp=2 / keyint=250 / keyint_min=25 / scenecut=40 / intra_refresh=0 / rc_lookahead=50 / rc=2pass / mbtree=1 / bitrate=670 / ratetol=1.0 / qcomp=0.60 / qpmin=0 / qpmax=69 / qpstep=4 / cplxblur=20.0 / qblur=0.5 / ip_ratio=1.40 / aq=1:1.00
Дата кодирования : UTC 2021-10-20 11:49:22
Дата пометки : UTC 2021-10-20 11:49:27
Аудио
Идентификатор : 2
Формат : AAC
Формат/Информация : Advanced Audio Codec
Профиль формата : LC
Идентификатор кодека : 40
Продолжительность : 44 м.
Вид битрейта : Переменный
Битрейт : 128 Кбит/сек
Максимальный битрейт : 132 Кбит/сек
Каналы : 2 канала
Расположение каналов : Front: L R
Частота : 48,0 КГц
Метод сжатия : С потерями
Размер потока : 40,9 Мбайт (16%)
Дата кодирования : UTC 2021-10-20 11:49:26
Дата пометки : UTC 2021-10-20 11:49:27
Скриншоты
Сезоны 02-20 + Спецвыпуски сезоны 1-2:
Качество: HDTVRip
Формат: MP4
Видео: AVC, 640x360, 670 kbps, 25,000 fps
Аудио: AAC, 2 ch, 48,0 kHz, 128 Kbps
Список выпусков:
Сезон 02:
2-01 За бортом (Blow Out)
2-02 Раненая птица (A Wounded Bird)
2-03 Захват самолета (The Killing Machine)
2-04 Столкновение в небе (Mid-Air Collision)
2-05 Столкновение с горой (Crash on the Mountain)
2-06 Роковая задержка (Deadly Delay)
Сезон 03:
3-01 На волосок от гибели (Hanging by a Thread)
3-02 Атака над Багдадом (Attack Over Baghdad)
3-03 Потеря контроля (Out of Control)
3-04 Нападение самоубийцы (Fight for Your Life)
3-05 Бомба на борту (Bomb on Board)
3-06 Ошибка в идентификации (Mistaken Identity)
3-07 Авария вертолета (Helicopter Down)
3-08 EgyptAir 990 (Death and Denial)
3-09 Ребенок за штурвалом лайнера (Kid in the Cockpit)
3-10 Столкновение поездов (Collision Course)
3-11 Крушение греческого парома (Head On Collision)
3-12 Сорвавшийся поезд (Runaway Train)
3-13 Угон самолета в Африке (Ocean Landing)
Сезон 04:
4-01 Чудесное спасение (Desperate Escape)
4-02 Все двигатели отказали (Falling from the Sky)
4-03 Схватка с огнем (Fire Fight)
4-04 Посадка вслепую (Final Approach)
4-05 Скрытая опасность (Hidden Danger)
4-06 Паника над Тихим океаном (Panic over the Pacific)
4-07 Пикирование в бездну (Vertigo)
4-08 Самолет-призрак (Ghost Plane)
4-09 Столкновение над Лос-Анджелесом (Out of Sight)
4-10 Исчезновение рейса (Fog of War)
Сезон 05:
5-01 Почему самолет рухнул на землю (Invisible Killer)
5-02 Роковое приземление (Gimli Glider)
5-03 За закрытыми дверями (Behind Closed Doors)
5-04 Злополучный груз (Fanning the Flames)
5-05 Мертвый груз (Dead Weight)
5-06 Южная буря (Southern Storm)
5-07 Взрывоопасная улика (Explosive Evidence)
5-08 Самолет, который молчал (Mixed Signals)
5-09 Без управления (Fatal Distraction)
5-10 Радиомолчание (Phantom Strike)
Сезон 06:
6-01 Разорванный небом (Ripped Apart)
6-02 Роковой дефект (Fatal Flaw)
6-03 Кто управляет самолетом (Who's Flying the Plane)
Сезон 07:
07-01 Распавшийся за секунды (Scratching the Surface)
07-02 Локерби (Lockerbie Disaster)
07-03 Смертельный приз (Blown Apart)
07-04 Спасение детей (Operation Babylift)
07-05 Лобовое столкновение (Sight Unseen)
07-06 Исчезнувший самолет (Flight 574. Lost)
07-07 Обледенение в воздухе (Frozen in Flight)
07-08 Аварийное приводнение (Falling Fast)
Сезон 08:
8-01 Обрыв связи (System Breakdown)
8-02 Смертельный ураган (Cruel Skies)
Сезон 09:
9-01 Паника на взлетной полосе (Panic on the Runway)
9-02 Хаос в кабине (Alarming Silence)
9-03 Пилот или самолет (Pilot vs. Plane)
9-04 Ошибка диспетчера (Cleared for Disaster)
9-05 Цель уничтожена (Target is Destroyed)
9-06 В снежном плену (Cold Case)
9-07 Спрограммированное падение (The Final Blow)
9-08 Майамская загадка (Miami Mistery)
Сезон 10:
10-01 Последняя ошибка пилота (Cockpit Failure)
10-02 Загадка Хитроу (The Heathrow Enigma)
10-03 Коварный лед (Pilot Betrayed)
10-04 Смертельно уставшие (Dead Tired)
10-05 Посадка на Гудзон (Hudson River Runway)
10-06 Кто управлял самолетом (Who's In Control)
Сезон 11:
11-01 Катастрофа при посадке (Deadly Reputation)
11-02 Роковая ошибка (The Plane That Flew Too High)
11-03 Двойственное решение комиссии (Split Decision)
11-04 Распавшийся в небе (Breakup Over Texas)
11-05 Мюнхенская трагедия (Munich Air Disaster)
11-06 Полет на грани падения (Turning Point)
11-07 Смертельный пилотаж (Bad Attitude)
11-08 Мертвая зона (Blind Spot)
11-09 Ад в пустыне (Under Pressure)
11-10 В поисках виновных (I'm The Problem)
11-11 Посадка невозможна (Nowhere to Land)
11-12 Невидимый самолет (The Invisible Plane)
11-13 Взрыв над Сиу-Сити (Impossible Landing)
Сезон 12:
12-01 Борьба за управление (Fight for Control)
12-02 Пожар в грузовом отсеке (Fire in the Hold)
12-03 Ураганный взлет (Caution to the Wind)
12-04 Доведенный до предела (Pushed to the Limit)
12-05 Посадка вслепую (Blind Landing)
12-06 Катастрофа в Большом Каньоне (Grand Canyon Disaster)
12-07 Самая страшная авиакатастрофа в США (Catastrophe at O'Hare)
12-08 Фатальная фиксация (Focused on Failure)
12-09 Трагедия Локомотива (Lokomotiv Hockey Team Disaster)
12-10 Гибель президента (Death of the President)
12-11 Курс на смерть (Heading to Disaster)
12-12 28 секунд на выживание (28 Seconds to Survive)
12-13 Air France 447. Пропавший рейс (Air France 447. Vanished)
Сезон 13:
13-01 Борьба за жизнь (Britain's Worst Air Crash)
13-02 Молчание Фантома (Speed Trap)
13-03 Трудности перевода (Lost in Translation)
13-04 Трагедия на Потомаке (Disaster on the Potomac)
13-05 Катастрофа в Квинсе (Queens Catastrophe)
13-06 В эпицентре бури (Into the Eye of the Storm)
13-07 Кошмар в раю (Terror In Paradise)
13-08 Смертельный тест (Deadly Test)
13-09 Бойня над Средиземным морем (Massacre Over The Mediterranean)
13-10 Небесный Титаник (Qantas 32. Titanic In The Sky)
Сезон 14:
14-01 Полный отказ двигателей (M1 Plane Crash)
14-02 Ники Лауда. Трагедия в воздухе (Niki Lauda. Tragedy in the Air)
14-03 Сбившийся с курса (Vanishing Act)
14-04 Пропавший над джунглями (Sideswiped)
14-05 Смерть в Нарите (Death At Narita)
14-06 Смерть Джона Кеннеди-младшего (The Death of JFK Jnr)
14-07 Конкорд - в огне (Concorde - Up In Flames)
14-08 Трагедия в центре города (Inner City Carnage)
14-09 Бог троицу не любит (3rd Time Unlucky)
14-10 Смерть в Арктике (Death In The Arctic)
14-11 Что случилось с Malaysia 370n (Malaysia 370. What Happened)
Сезон 15:
15-01 Фатальная передача (Fatal Transmission)
15-02 Ужас в Сан-Франциско (Terror In San Francisco)
15-03 Снежный ком (High Rise Catastrophe)
15-04 Смертельная доставка (Fatal Delivery)
15-05 Смертельная миссия (Deadly Mission)
15-06 На грани катастрофы (Edge Of Disaster)
15-07 Роковая задержка (Deadly Delay)
15-08 Роковая ошибка (Fatal Focus)
15-09 Катастрофа (Steep Impact)
15-10 Кровавая баня в Сан-Паулу (Carnage In Sao Paulo)
Сезон 16:
16-01. Мёртвая тишина (Deadly Silence)
16-02. 9-11 Атака на Пентагон (9-11 The Pentagon Attack)
16-03. Катастрофа на Тенерифе (Disaster At Tenerife)
16-04. Смертельная деталь (Deadly Detail)
16-05. Смертельный вираж (Deadly Detour)
16-06. Приближение опасности (Dangerous Approach)
16-07. Убийство в облаках (Murder In The Skies)
16-08. Убегающая река (Аварийная посадка на реку)(River Runway)
16-09. Смертельное решение (Deadly Solution)
16-10. Афганский кошмар (Afghan Nightmare)
Сезон 17:
17-01. Убийственное отношение (Killer Attitude)
17-02. Смертельный миф (Deadly Myth)
17-03. Поворотная точка (Turning Point)
17-04. Взрывное доказательство (Explosive Proof)
17-05. Смертельный поворот (Lethal Turn)
17-06. Попавший в шторм на небе (Storming Out)
17-07. Пойманный на плёнку (Caught on Tape)
17-08. Террор над Египтом (Terror over Egypt)
17-09. Смертельные обсуждения (Deadly Discussions)
17-10. Пропавший самолёт (The Lost Plane)
Сезон 18:
18-01. Гайки и болты (Nuts and bolts)
18-02. С ума сойти (Blown away)
18-03. Фатальная рассеянность (Deadly distraction)
18-04. Смертоносное небо (Deadly airspace)
18-05. Смертельная демонстрация (Deadly display)
18-06. Смертельная миссия (Deadly mission)
18-07. В свободном падении (Free Fall)
18-08. Опасное отклонение (Deadly Inclination)
18-09. Опасный манёвр (Deadly Go-Round)
18-10. Смертоносная зима (Dead of winter)
Сезон 19:
19-01. Смертельная гонка (Death race)
19-02. Пограничная тактика (Borderline tactics)
19-03. Смертельный наклон (Deadly pitch)
19-04. Фатальный взлёт (Fatal climb)
19-05. Фатальная посадка (Fatal approach)
19-06. Взлетно-посадочная полоса (Runway runoff)
19-07. Смертельные границы (Lethal limits)
19-08. Смертельное снижение (Deadly descent)
19-09. Футбольная трагедия (Football tragedy)
19-10. Коронный бросок (Slam dunk)
Сезон 20:
20-01. Взрыв при посадке (Explosive Touchdown)
20-02. Столкновение на взлетно-посадочной полосе (Taxiway Turmoil)
20-03. Заход на посадку в Катманду (Kathmandu Descent)
20-04. Крутой спуск (Роковой лёд)(Icy Descent)
20-05. Авиакатастрофа над Атлантикой (Atlantic Ditching)
20-06. Невероятное пике (Impossible Pitch)
20-07. Без предупреждения (No Warning)
20-08. Убийца в кабине (Cockpit Killer)
20-09. Штормовой взлет (Stormy Cockpit)
20-10. Катастрофа на взлетной полосе (Runway Breakup)
The Accident Files season 1 (2018):
18-11 Обрыв связи (Communication Breakdown)
18-12 Смертельный пилотаж (Bad attitude)
18-13 Пилоты-герои (Hero pilots)
18-14 Самолет против пилота (Plane versus pilot)
18-15 Взрывная улика (Explosive evidence)
18-16 Убийца в кабине пилота (Killer in the Cockpit)
18-17 Пропавшие части (Missing pieces)
18-18 Противоречивые крушения (Controversial crashes)
18-19 Смертельная рассеянность (Смертельные ошибки)(Deadly Distractions)
18-20 Пожар на борту (Fire on Board)
The Accident Files season 2 (2019):
19-11. Самые известные авиакатастрофы (Headline news)
19-12. Нелепые ошибки (Rookie errors)
19-13. Курс на столкновение (Collision course)
19-14. Отказ двигателей (Engines out)
19-15. Проблемы с топливом (Fuel trouble)
19-16. Вижу полосу (Runway in sight)
19-17. Опасный груз (Perilous payloads)
19-18. Изъяны конструкции (Design flaws)
19-19. Радиомолчание (Radio silence)
19-20. Смертельное замешательство (Deadly Confusion)
ТХ/MediaInfo:
Общее
Полное имя : D:\Кино\Air Crash Investigation\02\2-01 За бортом (Blow Out).mp4
Формат : MPEG-4
Профиль формата : Base Media
Идентификатор кодека : isom
Размер файла : 299 Мбайт
Продолжительность : 52 м.
Режим общего битрейта : Переменный
Общий поток : 802 Кбит/сек
Дата кодирования : UTC 2021-10-18 17:13:45
Дата пометки : UTC 2021-10-18 17:13:45
Видео
Идентификатор : 1
Формат : AVC
Формат/Информация : Advanced Video Codec
Профиль формата : [email protected]
Параметр CABAC формата : Да
Параметр ReFrames формата : 9 кадров
Идентификатор кодека : avc1
Идентификатор кодека/Информация : Advanced Video Coding
Продолжительность : 52 м.
Битрейт : 670 Кбит/сек
Максимальный битрейт : 2807 Кбит/сек
Ширина : 640 пикселей
Высота : 360 пикселей
Соотношение сторон : 16:9
Режим частоты кадров : Постоянный
Частота кадров : 25,000 кадров/сек
Цветовое пространство : YUV
Субдискретизация насыщенности : 4:2:0
Битовая глубина : 8 бит
Тип развёртки : Прогрессивная
Бит/(Пиксели*Кадры) : 0.116
Размер потока : 249 Мбайт (84%)
Библиотека кодирования : x264 core 125 r2200 999b753
Настройки программы : cabac=1 / ref=9 / deblock=1:-1:-1 / analyse=0x3:0x133 / me=umh / subme=8 / psy=1 / psy_rd=1.00:0.10 / mixed_ref=1 / me_range=24 / chroma_me=1 / trellis=2 / 8x8dct=1 / cqm=0 / deadzone=21,11 / fast_pskip=0 / chroma_qp_offset=-3 / threads=6 / lookahead_threads=1 / sliced_threads=0 / nr=0 / decimate=1 / interlaced=0 / bluray_compat=0 / constrained_intra=0 / bframes=8 / b_pyramid=2 / b_adapt=2 / b_bias=0 / direct=3 / weightb=1 / open_gop=0 / weightp=2 / keyint=250 / keyint_min=25 / scenecut=40 / intra_refresh=0 / rc_lookahead=50 / rc=2pass / mbtree=1 / bitrate=670 / ratetol=1.0 / qcomp=0.60 / qpmin=0 / qpmax=69 / qpstep=4 / cplxblur=20.0 / qblur=0.5 / ip_ratio=1.40 / aq=1:1.00
Дата кодирования : UTC 2021-10-18 17:13:45
Дата пометки : UTC 2021-10-18 17:13:51
Аудио
Идентификатор : 2
Формат : AAC
Формат/Информация : Advanced Audio Codec
Профиль формата : LC
Идентификатор кодека : 40
Продолжительность : 52 м.
Вид битрейта : Переменный
Битрейт : 128 Кбит/сек
Максимальный битрейт : 132 Кбит/сек
Каналы : 2 канала
Расположение каналов : Front: L R
Частота : 48,0 КГц
Метод сжатия : С потерями
Размер потока : 47,7 Мбайт (16%)
Дата кодирования : UTC 2021-10-18 17:13:50
Дата пометки : UTC 2021-10-18 17:13:51
Скриншоты
Сезон 21 + Спецвыпуски сезоны 3-4:
Качество: HDTVRip
Формат: MP4
Видео: AVC, 480x360, 670 kbps, 25,000 fps
Аудио: AAC, 2 ch, 48,0 kHz, 128 Kbps
Список выпусков:
Сезон 21:
21-01. Кошмар в Северном море (North Sea Nightmare)
21-02. Игра в догонялки (Playing Catch Up)
21-03. Трагедия в Лексингтоне (Tragic Takeoff)
21-04. От полетов отстранён - Boeing 737 MAX 8 (Grounded - Boeing Max 8)
21-05. Авария в салоне (Cabin Catastrophe)
21-06. Авария над Катманду (Meltdown Over Kathmandu)
21-07. Провал миссии (Mission Disaster)
21-08. Попали в передрягу (Caught In A Jam)
21-09. За миг до посадки (Seconds From Touchdown)
21-10. Смертельная поставка (Deadly Delivery)
The Accident Files season 3 (2020):
20-11. Смелость в кабине пилота (Courage in the Cockpit)
20-12. Смерть с небес (Death from Above)
20-13. Выжившие (Survivors)
20-14. Сбой в системе безопасности (Lapse in Security)
20-15. В запале (С горяча)(Heat of the moment)
20-16. VIP-персона на борту (VIP on Board)
20-17. Горная преграда (Mountain Impact)
20-18. Трагедии при взлете (TakeOff Tragedies)
20.19. Ошибки при техобслуживании (Maintenance Mistakes)
The Accident Files season 4 (2021):
21-01. Под покровом ночи (Dead of night)
21-02. Отказ двигателя (Engine gone)
21-03. Неверный выбор (Lethal Choices)
21-04. Риск на взлётной полосе (Risky runways)
21-05. Неудачные посадки (Landings gone wrong)
21-06. Коварное обледенение (Frozen wings)
21-07. Бедствие на взлётной полосе (Runway collisions)
21-08. Неполадки в кабине (Cockpit breakdown)
21-09. Приводнение (Splash Down)
21-10. Крайности севера (Northern Extremes)
ТХ/MediaInfo:
Общее
Полное имя : D:\Кино\Air Crash Investigation\21\21-01. Кошмар в Северном море (North Sea Nightmare).mp4
Формат : MPEG-4
Профиль формата : Base Media
Идентификатор кодека : isom
Размер файла : 242 Мбайт
Продолжительность : 42 м.
Режим общего битрейта : Переменный
Общий поток : 802 Кбит/сек
Дата кодирования : UTC 2021-11-04 10:47:33
Дата пометки : UTC 2021-11-04 10:47:33
Видео
Идентификатор : 1
Формат : AVC
Формат/Информация : Advanced Video Codec
Профиль формата : [email protected]
Параметр CABAC формата : Да
Параметр ReFrames формата : 9 кадров
Идентификатор кодека : avc1
Идентификатор кодека/Информация : Advanced Video Coding
Продолжительность : 42 м.
Битрейт : 670 Кбит/сек
Максимальный битрейт : 3354 Кбит/сек
Ширина : 640 пикселей
Высота : 360 пикселей
Соотношение сторон : 16:9
Режим частоты кадров : Постоянный
Частота кадров : 25,000 кадров/сек
Цветовое пространство : YUV
Субдискретизация насыщенности : 4:2:0
Битовая глубина : 8 бит
Тип развёртки : Прогрессивная
Бит/(Пиксели*Кадры) : 0.116
Размер потока : 202 Мбайт (84%)
Библиотека кодирования : x264 core 125 r2200 999b753
Настройки программы : cabac=1 / ref=9 / deblock=1:-1:-1 / analyse=0x3:0x133 / me=umh / subme=8 / psy=1 / psy_rd=1.00:0.10 / mixed_ref=1 / me_range=24 / chroma_me=1 / trellis=2 / 8x8dct=1 / cqm=0 / deadzone=21,11 / fast_pskip=0 / chroma_qp_offset=-3 / threads=6 / lookahead_threads=1 / sliced_threads=0 / nr=0 / decimate=1 / interlaced=0 / bluray_compat=0 / constrained_intra=0 / bframes=8 / b_pyramid=2 / b_adapt=2 / b_bias=0 / direct=3 / weightb=1 / open_gop=0 / weightp=2 / keyint=250 / keyint_min=25 / scenecut=40 / intra_refresh=0 / rc_lookahead=50 / rc=2pass / mbtree=1 / bitrate=670 / ratetol=1.0 / qcomp=0.60 / qpmin=0 / qpmax=69 / qpstep=4 / cplxblur=20.0 / qblur=0.5 / ip_ratio=1.40 / aq=1:1.00
Дата кодирования : UTC 2021-11-04 10:47:33
Дата пометки : UTC 2021-11-04 10:47:37
Аудио
Идентификатор : 2
Формат : AAC
Формат/Информация : Advanced Audio Codec
Профиль формата : LC
Идентификатор кодека : 40
Продолжительность : 42 м.
Вид битрейта : Переменный
Битрейт : 128 Кбит/сек
Максимальный битрейт : 134 Кбит/сек
Каналы : 2 канала
Расположение каналов : Front: L R
Частота : 48,0 КГц
Метод сжатия : С потерями
Размер потока : 38,6 Мбайт (16%)
Дата кодирования : UTC 2021-11-04 10:47:37
Дата пометки : UTC 2021-11-04 10:47:37
Скриншоты


Последний раз редактировалось: Azazel (2021-11-04 23:04), всего редактировалось 1 раз
[Профиль] [ЛС]

Azazel ®

Стаж: 8 лет 8 месяцев

Сообщений: 16

Создавать темы 30-Окт-2021 18:06 (спустя 5 дней)

[Цитировать]

Раздача обновлена до 18-го сезона
[Профиль] [ЛС]

Azazel ®

Стаж: 8 лет 8 месяцев

Сообщений: 16

Создавать темы 04-Ноя-2021 23:05 (спустя 5 дней)

[Цитировать]

Обновил
[Профиль] [ЛС]
Показать сообщения:    
Ответить на тему

Текущее время: 30-Ноя 18:39

Часовой пояс: UTC + 3



Вы не можете начинать темы
Вы не можете отвечать на сообщения
Вы не можете редактировать свои сообщения
Вы не можете удалять свои сообщения
Вы не можете голосовать в опросах
Вы не можете прикреплять файлы к сообщениям
Вы не можете скачивать файлы