Капо / Kapo (1960) BDRip [H.264] [DVO]

Ответить на тему
 
Автор Сообщение

Luka_2021 ®

Стаж: 1 месяц 25 дней

Сообщений: 72

Создавать темы 06-Окт-2021 15:35

[Цитировать]

-Капо / Kapò (1960) BDRip [H.264]- Производство: Италия, Франция, Югославия, Cineriz, Vides Cinematografica, Zebra Films, Francinex, Lovcen Film
Жанр: драма, военный
Режиссер: Джилло Понтекорво
Актеры: Сьюзен Страсберг, Лоран Терзиефф, Эмманюэль Рива, Диди Перего, Джанни Гарко, Annabella Besi, Грациэлла Гальвани, Паола Питагора, Eleonora Bellinzaghi, Бруно Шипиони
Описание: Основанная на реальных фактах, история нравственного падения еврейской девушки, попавшей в невообразимые условия гитлеровской фабрики смерти Освенцим и ставшей капо (надзирательницей). Чтобы не голодать, жить без постоянного страха смерти, не опасаясь изнурительных каторжных работ, нужно только одно – быть жестокой... Фильм был номинирован на премию Оскар в 1961 году как лучший фильм на иностранном языке.

Релиз от: msltel
Продолжительность: 01:57:06
Качество видео: BDRip
Перевод: Любительский двухголосый (den904 & DeadSno)
Язык озвучки: Русский, итальянский
Субтитры: Русские (garageforsale), английские
Видео: AVC/H.264, 956x576, 2711 Kbps
Аудио 1: AC3, 2 ch, 192 kbps | Русский (DVO)
Аудио 2: AC3, 2 ch, 192 kbps | Итальянский
MediaInfo + log x264
---[Information] [13.09.2021 11:53:52] x264 [info]: frame I:928 Avg QP:16.22 size: 59618
---[Information] [13.09.2021 11:53:52] x264 [info]: frame P:34991 Avg QP:18.25 size: 27590
---[Information] [13.09.2021 11:53:52] x264 [info]: frame B:132715 Avg QP:20.52 size: 10249
---[Information] [13.09.2021 11:53:52] x264 [info]: consecutive B-frames: 1.3% 2.1% 6.3% 22.4% 18.2% 32.2% 8.2% 4.4% 2.3% 1.1% 0.7% 0.7%
---[Information] [13.09.2021 11:53:52] x264 [info]: mb I I16..4: 3.2% 78.3% 18.5%
---[Information] [13.09.2021 11:53:52] x264 [info]: mb P I16..4: 0.2% 9.5% 1.3% P16..4: 33.6% 39.7% 13.7% 0.0% 0.0% skip: 2.0%
---[Information] [13.09.2021 11:53:52] x264 [info]: mb B I16..4: 0.0% 1.2% 0.2% B16..8: 35.2% 21.1% 3.9% direct: 6.8% skip:31.7% L0:43.4% L1:42.2% BI:14.4%
---[Information] [13.09.2021 11:53:52] x264 [info]: 8x8 transform intra:85.2% inter:52.7%
---[Information] [13.09.2021 11:53:52] x264 [info]: coded y,uvDC,uvAC intra: 93.4% 2.0% 0.2% inter: 30.2% 0.4% 0.0%
---[Information] [13.09.2021 11:53:52] x264 [info]: i16 v,h,dc,p: 52% 13% 9% 26%
---[Information] [13.09.2021 11:53:52] x264 [info]: i8 v,h,dc,ddl,ddr,vr,hd,vl,hu: 9% 7% 8% 10% 14% 14% 13% 13% 13%
---[Information] [13.09.2021 11:53:52] x264 [info]: i4 v,h,dc,ddl,ddr,vr,hd,vl,hu: 10% 6% 9% 8% 15% 16% 13% 11% 12%
---[Information] [13.09.2021 11:53:52] x264 [info]: i8c dc,h,v,p: 47% 51% 1% 1%
---[Information] [13.09.2021 11:53:52] x264 [info]: Weighted P-Frames: Y:13.8% UV:0.1%
---[Information] [13.09.2021 11:53:52] x264 [info]: ref P L0: 42.4% 10.8% 16.0% 6.2% 5.4% 3.7% 3.6% 1.8% 1.9% 1.5% 1.5% 1.2% 1.3% 1.1% 1.3% 0.1%
---[Information] [13.09.2021 11:53:52] x264 [info]: ref B L0: 72.4% 10.7% 5.2% 2.7% 2.0% 1.7% 1.4% 0.9% 0.7% 0.7% 0.6% 0.6% 0.4% 0.2%
---[Information] [13.09.2021 11:53:52] x264 [info]: ref B L1: 94.9% 5.1%
---[Information] [13.09.2021 11:53:52] x264 [info]: kb/s:2710.80
---[Information] [13.09.2021 11:53:52] encoded 168634 frames, 8.52 fps, 2710.81 kb/s
Общее
Уникальный идентификатор : 177362865604596520819277529225123479325 (0x856ED86B6A3A7928C29AB9AD4C323F1D)
Полное имя : D:\Video\Капо.1960.BDRip-AVC msltel.mkv
Формат : Matroska
Версия формата : Version 4
Размер файла : 2,53 Гбайт
Продолжительность : 1 ч. 57 м.
Общий поток : 3 097 Кбит/сек
Название фильма : Капо.1960.BDRip-AVC msltel
Дата кодирования : UTC 2021-09-13 05:13:55
Программа кодирования : mkvmerge v44.0.0 ('Domino') 64-bit
Библиотека кодирования : libebml v1.3.10 + libmatroska v1.5.2
Видео
Идентификатор : 1
Формат : AVC
Формат/Информация : Advanced Video Codec
Профиль формата : [email protected]
Настройки формата : CABAC / 15 Ref Frames
Параметр CABAC формата : Да
Параметр RefFrames формата : 15 кадров
Идентификатор кодека : V_MPEG4/ISO/AVC
Продолжительность : 1 ч. 57 м.
Битрейт : 2 711 Кбит/сек
Ширина : 956 пикселей
Высота : 576 пикселей
Соотношение сторон : 5:3
Режим частоты кадров : Постоянный
Частота кадров : 24,000 кадра/сек
Цветовое пространство : YUV
Субдискретизация насыщенности : 4:2:0
Битовая глубина : 8 бит
Тип развёртки : Прогрессивная
Бит/(Пиксели*Кадры) : 0.205
Размер потока : 2,22 Гбайт (88%)
Библиотека кодирования : x264 core 161 r3018 db0d417
Настройки программы : cabac=1 / ref=15 / deblock=1:-3:-3 / analyse=0x3:0x113 / me=umh / subme=11 / psy=1 / psy_rd=1.05:0.00 / mixed_ref=1 / me_range=32 / chroma_me=1 / trellis=2 / 8x8dct=1 / cqm=0 / deadzone=21,11 / fast_pskip=0 / chroma_qp_offset=-2 / threads=12 / lookahead_threads=3 / sliced_threads=0 / nr=0 / decimate=0 / interlaced=0 / bluray_compat=0 / constrained_intra=0 / bframes=11 / b_pyramid=2 / b_adapt=2 / b_bias=0 / direct=1 / weightb=1 / open_gop=0 / weightp=2 / keyint=230 / keyint_min=23 / scenecut=40 / intra_refresh=0 / rc_lookahead=40 / rc=crf / mbtree=0 / crf=18.0 / qcomp=0.60 / qpmin=0 / qpmax=69 / qpstep=4 / vbv_maxrate=50000 / vbv_bufsize=62500 / crf_max=0.0 / nal_hrd=none / filler=0 / ip_ratio=1.40 / pb_ratio=1.30 / aq=3:1.00
Язык : Italian
Default : Да
Forced : Нет
Аудио #1
Идентификатор : 2
Формат : AC-3
Формат/Информация : Audio Coding 3
Коммерческое название : Dolby Digital
Идентификатор кодека : A_AC3
Продолжительность : 1 ч. 57 м.
Вид битрейта : Постоянный
Битрейт : 192 Кбит/сек
Каналы : 2 канала
Channel layout : L R
Частота : 48,0 КГц
Частота кадров : 31,250 кадров/сек (1536 SPF)
Метод сжатия : С потерями
Размер потока : 161 Мбайт (6%)
Заголовок : DVO den904 & DeadSno
Язык : Russian
Service kind : Complete Main
Default : Да
Forced : Нет
Аудио #2
Идентификатор : 3
Формат : AC-3
Формат/Информация : Audio Coding 3
Коммерческое название : Dolby Digital
Идентификатор кодека : A_AC3
Продолжительность : 1 ч. 57 м.
Вид битрейта : Постоянный
Битрейт : 192 Кбит/сек
Каналы : 2 канала
Channel layout : L R
Частота : 48,0 КГц
Частота кадров : 31,250 кадров/сек (1536 SPF)
Метод сжатия : С потерями
Размер потока : 161 Мбайт (6%)
Заголовок : original
Язык : Italian
Service kind : Complete Main
Default : Нет
Forced : Нет
Текст #1
Идентификатор : 4
Формат : UTF-8
Идентификатор кодека : S_TEXT/UTF8
Идентификатор кодека/Информация : UTF-8 Plain Text
Продолжительность : 1 ч. 54 м.
Битрейт : 63 бит/сек
Count of elements : 921
Размер потока : 53,1 Кбайт (0%)
Заголовок : русские, garageforsale
Язык : Russian
Default : Нет
Forced : Нет
Текст #2
Идентификатор : 5
Формат : UTF-8
Идентификатор кодека : S_TEXT/UTF8
Идентификатор кодека/Информация : UTF-8 Plain Text
Продолжительность : 1 ч. 54 м.
Битрейт : 34 бит/сек
Count of elements : 891
Размер потока : 28,9 Кбайт (0%)
Заголовок : английские
Язык : English
Default : Нет
Forced : Нет
Меню
00:00:00.000 : en:Chapter 01
00:10:14.000 : en:Chapter 02
00:20:00.167 : en:Chapter 03
00:30:01.000 : en:Chapter 04
00:40:00.000 : en:Chapter 05
00:50:02.000 : en:Chapter 06
00:59:58.000 : en:Chapter 07
01:10:00.000 : en:Chapter 08
01:20:08.000 : en:Chapter 09
01:30:04.000 : en:Chapter 10
01:39:58.000 : en:Chapter 11
01:50:01.000 : en:Chapter 12
Скриншоты:
Время раздачи: 24/7 в течение месяца
[Профиль] [ЛС]
Показать сообщения:    
Ответить на тему

Текущее время: 22-Окт 00:11

Часовой пояс: UTC + 3



Вы не можете начинать темы
Вы не можете отвечать на сообщения
Вы не можете редактировать свои сообщения
Вы не можете удалять свои сообщения
Вы не можете голосовать в опросах
Вы не можете прикреплять файлы к сообщениям
Вы не можете скачивать файлы