Игра в кальмара / Ojingeo geim / Сезон: 1 / Серии: 1-9 из 9 (Хван Дон-хёк) [2021 г., триллер, драма, WEB-DLRip на КПК] MVO (HDrezka Studio)

Ответить на тему
 
Автор Сообщение

Azazel ®

Стаж: 8 лет 7 месяцев

Сообщений: 13

Создавать темы 30-Сен-2021 18:49

[Цитировать]

Игра в кальмара / Ojingeo geimСлоган: «45.6 Billion Won is Child's Play»
Год выпуска: 2021
Страна: Южная Корея
Жанр: триллер, драма
Продолжительность: ~ 00:55:00
Перевод: Профессиональный (многоголосый, закадровый) HDrezka Studio
Субтитры: Нет
Режиссёр: Хван Дон-хёк
В ролях: Ли Джон-джэ, Пак Хэ-су, О Ён-су, Чон Хо-ён, Хо Сон-тхэ, Анупам Трипати, Ким Джу-рён, Ви Ха-джун, Ю Сон-джу, Ли Ю-ми
Описание: Сон Ги-хун уже немолод, разведён, по уши погряз в долгах и сидит на шее у старенькой матери. Даже выигранные на скачках деньги в его руках долго не задерживаются, и однажды он встречает в метро загадочного незнакомца, который сначала предлагает сыграть в детскую игру, а затем вручает Ги-хуну немалую сумму и визитку. Но радость мужчины сменятся отчаянием, когда он узнаёт, что бывшая жена с новым мужем собираются увезти его дочь в Америку. Он звонит по номеру с визитки и становится последним участником тайных игр на выживание с призом в 40 миллионов долларов. Среди товарищей по несчастью оказываются его друг детства — прогоревший финансист, бандит, смертельно больной старик, северокорейская перебежчица, иммигрант из Пакистана и многие другие отчаянно нуждающиеся в деньгах.

Релиз от:
Рип от: Страна
Качество: WEB-DLRip
Формат: MP4
Видео кодек: AVC
Аудио кодек: AAC
Видео: 480x240, 23,976 fps, 430 kbps
Аудио: 2 ch, 48,0 kHz, 128 Kbps
Скриншоты
Ми
Общее
Полное имя : D:\Кино\Squid.Game.S01\Squid.Game.S01E01.mp4
Формат : MPEG-4
Профиль формата : Base Media
Идентификатор кодека : isom
Размер файла : 238 Мбайт
Продолжительность : 59 м.
Режим общего битрейта : Переменный
Общий поток : 558 Кбит/сек
Дата кодирования : UTC 2021-09-29 18:20:35
Дата пометки : UTC 2021-09-29 18:20:35
Видео
Идентификатор : 1
Формат : AVC
Формат/Информация : Advanced Video Codec
Профиль формата : [email protected]
Параметр CABAC формата : Да
Параметр ReFrames формата : 9 кадров
Идентификатор кодека : avc1
Идентификатор кодека/Информация : Advanced Video Coding
Продолжительность : 59 м.
Битрейт : 430 Кбит/сек
Максимальный битрейт : 2275 Кбит/сек
Ширина : 480 пикселей
Высота : 240 пикселей
Соотношение сторон : 2,000
Режим частоты кадров : Постоянный
Частота кадров : 23,976 кадра/сек
Цветовое пространство : YUV
Субдискретизация насыщенности : 4:2:0
Битовая глубина : 8 бит
Тип развёртки : Прогрессивная
Бит/(Пиксели*Кадры) : 0.156
Размер потока : 183 Мбайт (77%)
Библиотека кодирования : x264 core 125 r2200 999b753
Настройки программы : cabac=1 / ref=9 / deblock=1:-1:-1 / analyse=0x3:0x133 / me=umh / subme=8 / psy=1 / psy_rd=1.00:0.20 / mixed_ref=1 / me_range=24 / chroma_me=1 / trellis=2 / 8x8dct=1 / cqm=0 / deadzone=21,11 / fast_pskip=0 / chroma_qp_offset=-3 / threads=6 / lookahead_threads=1 / sliced_threads=0 / nr=0 / decimate=0 / interlaced=0 / bluray_compat=0 / constrained_intra=0 / bframes=8 / b_pyramid=2 / b_adapt=2 / b_bias=0 / direct=3 / weightb=1 / open_gop=0 / weightp=2 / keyint=250 / keyint_min=23 / scenecut=40 / intra_refresh=0 / rc_lookahead=50 / rc=2pass / mbtree=1 / bitrate=430 / ratetol=1.0 / qcomp=0.60 / qpmin=0 / qpmax=69 / qpstep=4 / cplxblur=20.0 / qblur=0.5 / ip_ratio=1.40 / aq=1:1.00
Дата кодирования : UTC 2021-09-29 18:20:35
Дата пометки : UTC 2021-09-29 18:20:39
Аудио
Идентификатор : 2
Формат : AAC
Формат/Информация : Advanced Audio Codec
Профиль формата : LC
Идентификатор кодека : 40
Продолжительность : 58 м.
Вид битрейта : Переменный
Битрейт : 128 Кбит/сек
Максимальный битрейт : 150 Кбит/сек
Каналы : 2 канала
Расположение каналов : Front: L R
Частота : 48,0 КГц
Метод сжатия : С потерями
Размер потока : 53,3 Мбайт (22%)
Дата кодирования : UTC 2021-09-29 18:20:38
Дата пометки : UTC 2021-09-29 18:20:39
[Профиль] [ЛС]
Показать сообщения:    
Ответить на тему

Текущее время: 16-Окт 12:10

Часовой пояс: UTC + 3



Вы не можете начинать темы
Вы не можете отвечать на сообщения
Вы не можете редактировать свои сообщения
Вы не можете удалять свои сообщения
Вы не можете голосовать в опросах
Вы не можете прикреплять файлы к сообщениям
Вы не можете скачивать файлы