VA - Любимой Женщине 3. Сборник медленных копозиций (1997) Unofficial Release [FLAC 2.0|48/24|image +.cue|MC-Rip] <Pop, Pop Rock>

Ответить на тему
 
Автор Сообщение

Luka_2021 ®

Стаж: 1 месяц 19 дней

Сообщений: 71

Создавать темы 22-Сен-2021 16:43

[Цитировать]

- VA - Любимой Женщине 3. Сборник медленных копозиций (1997) - Автор рипа: samopal records
Жанр: Pop, Pop Rock
Издание: Not on Label
Продолжительность: 01:17:04
Страна: Russia
Номера по каталогу: none
Формат записи: 24/96
Формат раздачи: 24/48
Реальные значения DR: 13
Источник: Cassette, Compilation, Unofficial Release-Треклист:
Side A:
01. Donna Lewis - I love You Always Forewer
02. Eric Clapton - Change The World
03. Alanis Morissette - Head Over Feet
04. Eagles - Love Will Keep Up Alive
05. Teach in - I'm Alone
06. Take That - How Deep Is Your Love
07. Amanda Marshall - Let It Rain
08. Celine Dion - Because You Loved Me
09. Aaliyah - At Your Best
Side B:
10. Roxette - You Don't Understand Me
11. Nana - Lonely
12. Sting - Let You Soul Be Your Pilot
13. Fugees - Killing Me softly
14. Marian Carey - Open Arms
15. Caught In The Act - Don't Look For Love
16. Joan Osborne - St. Teresa
17. J. J. Cale - A Thing Going On
18. E-Rotic - The Power Of Sex-
Technical info:
Носитель: MC
Код класса состояния MC: Ех
Устройство воспроизведения: Technics RS-TR575
Магнитная головка: RFKRSTR979
Фонокорректор: встроенный
АЦП: ESI [email protected]
Программа-оцифровщик: Adobe Audition CS6
Обработка: удаление артефактов
-
Отчёт MI:
Общее
Полное имя : C:\01. Side A.flac
Формат : FLAC
Формат/Информация : Free Lossless Audio Codec
Размер файла : 476 Мбайт
Продолжительность : 36 м. 9 с.
Режим общего битрейта : Переменный
Общий поток : 1 842 Кбит/сек
Аудио
Формат : FLAC
Формат/Информация : Free Lossless Audio Codec
Продолжительность : 36 м. 9 с.
Вид битрейта : Переменный
Битрейт : 1 842 Кбит/сек
Каналы : 2 канала
Channel layout : L R
Частота : 48,0 КГц
Битовая глубина : 24 бит
Метод сжатия : Без потерь
Размер потока : 476 Мбайт (100%)
Библиотека кодирования : libFLAC 1.0.25 (UTC 2007-09-17)
Общее
Полное имя : C:\02. Side B.flac
Формат : FLAC
Формат/Информация : Free Lossless Audio Codec
Размер файла : 497 Мбайт
Продолжительность : 40 м. 54 с.
Режим общего битрейта : Переменный
Общий поток : 1 700 Кбит/сек
Аудио
Формат : FLAC
Формат/Информация : Free Lossless Audio Codec
Продолжительность : 40 м. 54 с.
Вид битрейта : Переменный
Битрейт : 1 700 Кбит/сек
Каналы : 2 канала
Channel layout : L R
Частота : 48,0 КГц
Битовая глубина : 24 бит
Метод сжатия : Без потерь
Размер потока : 497 Мбайт (100%)
Библиотека кодирования : libFLAC 1.3.0 (UTC 2013-05-26)
Отчёт MI:
foobar2000 1.1.3 / Dynamic Range Meter 1.1.1
log date: 2021-09-19 16:05:52
--------------------------------------------------------------------------------
Analyzed: Various Artists / Любимой Женщине 3. Сборник медленных копозиций
--------------------------------------------------------------------------------
DR Peak RMS Duration Track
--------------------------------------------------------------------------------
DR13 -1.53 dB -17.12 dB 3:22 ?-01. Donna Lewis - I love You Always Forewer
DR13 -1.45 dB -17.78 dB 3:54 ?-02. Eric Clapton - Change The World
DR12 -1.40 dB -15.93 dB 4:25 ?-03. Alanis Morissette - Head Over Feet
DR12 -1.42 dB -14.95 dB 4:01 ?-04. Eagles - Love Will Keep Up Alive
DR14 -1.49 dB -17.32 dB 2:52 ?-05. Teach in - I'm Alone
DR12 -1.51 dB -15.86 dB 3:41 ?-06. Take That - How Deep Is Your Love
DR12 -1.49 dB -15.73 dB 4:32 ?-07. Amanda Marshall - Let It Rain
DR14 -1.49 dB -18.76 dB 4:33 ?-08. Celine Dion - Because You Loved Me
DR13 -1.67 dB -16.83 dB 4:49 ?-09. Aaliyah - At Your Best
DR11 -1.59 dB -15.24 dB 4:29 ?-10. Roxette - You Don't Understand Me
DR11 -1.84 dB -15.04 dB 6:20 ?-11. Nana - Lonely
DR13 -1.85 dB -17.26 dB 6:44 ?-12. Sting - Let You Soul Be Your Pilot
DR15 -1.49 dB -19.49 dB 5:03 ?-13. Fugees - Killing Me softly
DR14 -1.52 dB -19.52 dB 3:31 ?-14. Marian Carey - Open Arms
DR15 -1.47 dB -19.22 dB 3:11 ?-15. Caught In The Act - Don't Look For Love
DR12 -1.54 dB -16.81 dB 5:19 ?-16. Joan Osborne - St. Teresa
DR16 -1.54 dB -19.74 dB 2:40 ?-17. J. J. Cale - A Thing Going On
DR11 -1.47 dB -15.88 dB 3:37 ?-18. E-Rotic - The Power Of Sex
--------------------------------------------------------------------------------
Number of tracks: 18
Official DR value: DR13
Samplerate: 48000 Hz
Channels: 2
Bits per sample: 24
Bitrate: 1700 kbps
Codec: FLAC
================================================================================
Cover:
Спектрограмма:
-
Время раздачи: по выходным дням (минимум до появления первых 3-5 скачавших)
[Профиль] [ЛС]
Показать сообщения:    
Ответить на тему

Текущее время: 16-Окт 06:16

Часовой пояс: UTC + 3



Вы не можете начинать темы
Вы не можете отвечать на сообщения
Вы не можете редактировать свои сообщения
Вы не можете удалять свои сообщения
Вы не можете голосовать в опросах
Вы не можете прикреплять файлы к сообщениям
Вы не можете скачивать файлы