Смешанные единоборства. Bellator 266: Фил Дэвис – Йоэль Ромеро / Bellator 266: Davis vs. Romero. Full Event (18.09.2021) WEB-DL [H.264/720p-LQ] [EN]

Ответить на тему
 
Автор Сообщение

Luka_2021 ®

Стаж: 1 месяц 23 дня

Сообщений: 72

Создавать темы 21-Сен-2021 10:46

[Цитировать]

-Смешанные единоборства. Bellator 266: Фил Дэвис – Йоэль Ромеро / Bellator 266: Davis vs. Romero. Full Event (18.09.2021) WEB-DL [H.264/720p-LQ] [EN]- Телекомпания: SHOWTIME, BELLATOR MMA
Жанр: Спорт
Описание:
В ночь с 18 на 19 сентября в Сан-Хосе состоится турнир Bellator 266.
Главным событием вечера станет бой полутяжеловесов Фила Дэвиса (23-6) и Йоэля Ромеро (13-5).
Релиз от: Fight-BB
Продолжительность: 03:00:20 (Prelims) + 02:43:24 (Main Card)
Качество видео: WEB-DL
Язык озвучки: Английский
Субтитры: отсутствуют
Видео: AVC/H.264, 1280x720 (16:9), ~1762 Kbps
Аудио: AAC, 2 ch, 128 Kbps
Кард:
Main Card
Полутяжелый вес: Кристиан Эдвардс – Бен Пэрриш
Легкий вес: Георгий Караханян – Сол Роджерс
Женщины, наилегчайший вес: Алехандра Лара – Деанна Беннетт
Полусредний вес: Нейман Грейси – Марк Леммингер
Полутяжелый вес: Фил Дэвис – Йоэль Ромеро
Preliminary card
Промежуточный вес, до 59 кг: Джесси Дельгадо – Джошуа Диллон
Наилегчайший вес: Эдвин Де Лос Сантос – Джонатан Адамс
Полусредний вес: Халан Грейси – Шейн Киф
Средний вес: Абрахам Вэсо – Альберт Гонсалес
Легчайший вес: Бобби Серонио – Сократ Эрнандес
Средний вес: Халид Муртазалиев – Энтони Адамс
Полутяжелый вес: Грант Нил – Алекс Полицци
Mediainfo:
General
Complete name : D: Bellator.266.720p.WEB.x264\Main.Card.mp4
Format : MPEG-4
Format profile : Base Media / Version 2
Codec ID : mp42 (isom/mp42)
File size : 2.16 GiB
Duration : 2 h 43 min
Overall bit rate mode : Variable
Overall bit rate : 1 894 kb/s
Encoded date : UTC 2021-09-19 05:07:21
Tagged date : UTC 2021-09-19 05:07:21
gsst : 0
gstd : 9804068
Video
ID : 1
Format : AVC
Format/Info : Advanced Video Codec
Format profile : [email protected]
Format settings : CABAC / 3 Ref Frames
Format settings, CABAC : Yes
Format settings, Reference : 3 frames
Codec ID : avc1
Codec ID/Info : Advanced Video Coding
Duration : 2 h 43 min
Bit rate : 1 762 kb/s
Width : 1 280 pixels
Height : 720 pixels
Display aspect ratio : 16:9
Frame rate mode : Constant
Frame rate : 29.970 (30000/1001) FPS
Color space : YUV
Chroma subsampling : 4:2:0
Bit depth : 8 bits
Scan type : Progressive
Bits/(Pixel*Frame) : 0.064
Stream size : 2.01 GiB (93%)
Title : ISO Media file produced by Google Inc. Created on: 09/18/2021.
Encoded date : UTC 2021-09-19 05:07:21
Tagged date : UTC 2021-09-19 05:07:21
Color range : Limited
Color primaries : BT.709
Transfer characteristics : BT.709
Matrix coefficients : BT.709
Codec configuration box : avcC
Audio
ID : 2
Format : AAC LC
Format/Info : Advanced Audio Codec Low Complexity
Codec ID : mp4a-40-2
Duration : 2 h 43 min
Bit rate mode : Variable
Bit rate : 128 kb/s
Channel(s) : 2 channels
Channel layout : L R
Sampling rate : 44.1 kHz
Frame rate : 43.066 FPS (1024 SPF)
Compression mode : Lossy
Stream size : 150 MiB (7%)
Title : ISO Media file produced by Google Inc. Created on: 09/18/2021.
Language : English
Encoded date : UTC 2021-09-19 05:07:21
Tagged date : UTC 2021-09-19 05:07:21
Скриншоты:
Время раздачи: 24/7 (мультитрекерная раздача)
[Профиль] [ЛС]
Показать сообщения:    
Ответить на тему

Текущее время: 20-Окт 16:24

Часовой пояс: UTC + 3



Вы не можете начинать темы
Вы не можете отвечать на сообщения
Вы не можете редактировать свои сообщения
Вы не можете удалять свои сообщения
Вы не можете голосовать в опросах
Вы не можете прикреплять файлы к сообщениям
Вы не можете скачивать файлы