Футбол. Лига Чемпионов 2021-2022. Групповой этап. Группа ''A''. Манчестер Сити (Англия) - Лейпциг (Германия) (15.09.2021) HDTVRip [H.264/720p-LQ] [hand made 50fps]

Ответить на тему
 
Автор Сообщение

Luka_2021 ®

Стаж: 2 месяца 1 день

Сообщений: 72

Создавать темы 17-Сен-2021 13:55

[Цитировать]

- Футбол. Лига Чемпионов 2021-2022. Групповой этап. Группа ''A''. Манчестер Сити (Англия) - Лейпциг (Германия) (15.09.2021) HDTVRip [H.264/720p] - Телекомпания: Матч! Футбол 2
Жанр: Спорт, Футбол
Комментатор: Артем Шмельков
Описание:
Футбол. Лига Чемпионов 2021-2022. Групповой этап. Группа ''A''. Манчестер Сити (Англия) - Лейпциг (Германия) (15.09.2021)
СУДЬЯ Гёзюбююк Сердар (Харлем, Нидерланды)
Судья на линии 1: ван Зуйлен Йоост (Нидерланды)
Судья на линии 2: Балдер Йохан (Нидерланды)
Резервный судья: Мансхот Йерун (Нидерланды)
СТАДИОН «Сити оф Манчестер (Этихад Стэдиум)» (Манчестер)
Релиз от: CSKAfan
Продолжительность: 01:55:37
Качество видео: HDTVRip
Язык озвучки: Русский
Субтитры: отсутствуют
Видео: AVC/H.264, 1280x720, ~4061 kbps
Аудио: AC3, 2 ch, 128 kbps, Русский
MediaInfo:
Общее
Уникальный идентификатор                 : 47444640247279807438451891051302185915 (0x23B1815DA756F108529CC74BD4836BBB)
Полное имя                               : E:\FILMS\SPORT\UEFA Champions League 2021-2022. Group A. Matchday 01. Manchester City - RB Leipzig.mkv
Формат                                   : Matroska
Версия формата                           : Version 2
Размер файла                             : 3,45 Гбайт
Продолжительность                        : 1 ч. 55 м.
Общий поток                              : 4 274 Кбит/сек
Программа кодирования                    : Lavf54.63.104
Библиотека кодирования                   : Lavf54.63.104
Видео
Идентификатор                            : 1
Формат                                   : AVC
Формат/Информация                        : Advanced Video Codec
Профиль формата                          : [url=mailto:[email protected]][email protected][/url]
Настройки формата                        : CABAC / 4 Ref Frames
Параметр CABAC формата                   : Да
Параметр RefFrames формата               : 4 кадра
Параметр GOP формата                     : M=2, N=15
Идентификатор кодека                     : V_MPEG4/ISO/AVC
Продолжительность                        : 1 ч. 55 м.
Битрейт                                  : 4 061 Кбит/сек
Ширина                                   : 1 280 пикселей
Высота                                   : 720 пикселей
Соотношение сторон                       : 16:9
Режим частоты кадров                     : Постоянный
Частота кадров                           : 50,000 кадров/сек
Цветовое пространство                    : YUV
Субдискретизация насыщенности            : 4:2:0
Битовая глубина                          : 8 бит
Тип развёртки                            : Прогрессивная
Бит/(Пиксели*Кадры)                      : 0.088
Размер потока                            : 3,28 Гбайт (95%)
Default                                  : Нет
Forced                                   : Нет
Duration_Source                          : General_Duration
Аудио
Идентификатор                            : 2
Формат                                   : AC-3
Формат/Информация                        : Audio Coding 3
Коммерческое название                    : Dolby Digital
Идентификатор кодека                     : A_AC3
Продолжительность                        : 1 ч. 55 м.
Вид битрейта                             : Постоянный
Битрейт                                  : 128 Кбит/сек
Каналы                                   : 2 канала
Channel layout                           : L R
Частота                                  : 48,0 КГц
Частота кадров                           : 31,250 кадров/сек (1536 SPF)
Метод сжатия                             : С потерями
Размер потока                            : 106 Мбайт (3%)
Язык                                     : Russian
Service kind                             : Complete Main
Default                                  : Да
Forced                                   : Нет
Duration_Source                          : General_Duration
Скриншоты:
Время раздачи: с 5 до 19 мск (до появления первых 3-5 скачавших)
[Профиль] [ЛС]
Показать сообщения:    
Ответить на тему

Текущее время: 29-Окт 00:07

Часовой пояс: UTC + 3



Вы не можете начинать темы
Вы не можете отвечать на сообщения
Вы не можете редактировать свои сообщения
Вы не можете удалять свои сообщения
Вы не можете голосовать в опросах
Вы не можете прикреплять файлы к сообщениям
Вы не можете скачивать файлы