Stand Up (2021) WEBRip (сезон 9, выпуски 1-2 из ??) (обновляемая)

Ответить на тему
 
Автор Сообщение

Luka_2021 ®

Стаж: 1 месяц 19 дней

Сообщений: 71

Создавать темы 09-Сен-2021 17:02

[Цитировать]

- Stand Up (2021) WEBRip (сезон 9, выпуски 1-2 из ??) (обновляемая) - Телекомпания: ТНТ
Жанр: Юмор
Актеры: Руслан Белый, Слава Комиссаренко, Юлия Ахмедова, Дмитрий Романов, Стас Старовойтов, Тимур Каргинов, Виктор Комаров, Александр Шаляпин и др.
Описание:
Stand Up - это взгляд на наши жизненные повседневные ситуации. Это история, которую рассказывает человек на сцене, - обычно очень откровенную. Это правда жизни. Это что-то современное, что-то новое. Это что-то невообразимо оригинальное, яркое, интересное и обязательно смешное. Встречайте...
Продолжительность: ~00:46:00 выпуск
Качество видео: WEBRip
Субтитры: Отсутствуют
Видео: Xvid, 720x400 (16:9), ~1595 Kbps
Аудио: AC3, 2 ch, 192 Kbps
MediaInfo:
General
Complete name               : G:\STAND UP.s09.2021.WEB-DLRip\01. Stand Up.s09.2021.WEB-DLRip от Files-x.avi
Format                      : AVI
Format/Info                 : Audio Video Interleave
File size                   : 581 MiB
Duration                    : 45 min 7 s
Overall bit rate            : 1 799 kb/s
Writing application         : VirtualDubMod 1.5.10.3 | [url=http://www.virtualdub-fr.org]www.virtualdub-fr.org[/url] || (build 2550/release)
Writing library             : VirtualDubMod build 2550/release
Video
ID                          : 0
Format                      : MPEG-4 Visual
Format profile              : Advanced [email protected]
Format settings             : BVOP1 / Custom Matrix
Format settings, BVOP       : 1
Format settings, QPel       : No
Format settings, GMC        : No warppoints
Format settings, Matrix     : Custom
Codec ID                    : XVID
Codec ID/Hint               : XviD
Duration                    : 45 min 7 s
Bit rate                    : 1 597 kb/s
Width                       : 720 pixels
Height                      : 400 pixels
Display aspect ratio        : 16:9
Frame rate                  : 25.000 FPS
Color space                 : YUV
Chroma subsampling          : 4:2:0
Bit depth                   : 8 bits
Scan type                   : Progressive
Compression mode            : Lossy
Bits/(Pixel*Frame)          : 0.222
Stream size                 : 515 MiB (89%)
Writing library             : XviD 73
Audio
ID                          : 1
Format                      : AC-3
Format/Info                 : Audio Coding 3
Commercial name             : Dolby Digital
Codec ID                    : 2000
Duration                    : 45 min 7 s
Bit rate mode               : Constant
Bit rate                    : 192 kb/s
Channel(s)                  : 2 channels
Channel layout              : L R
Sampling rate               : 48.0 kHz
Frame rate                  : 31.250 FPS (1536 SPF)
Compression mode            : Lossy
Stream size                 : 62.0 MiB (11%)
Alignment                   : Split across interleaves
Interleave, duration        : 40  ms (1.00 video frame)
Interleave, preload duratio : 500  ms
Service kind                : Complete Main
Скриншоты:
Время раздачи: 24/7 (мультитрекерная раздача)
[Профиль] [ЛС]
Показать сообщения:    
Ответить на тему

Текущее время: 16-Окт 12:53

Часовой пояс: UTC + 3



Вы не можете начинать темы
Вы не можете отвечать на сообщения
Вы не можете редактировать свои сообщения
Вы не можете удалять свои сообщения
Вы не можете голосовать в опросах
Вы не можете прикреплять файлы к сообщениям
Вы не можете скачивать файлы