Солдаты (2004-2013) WEB-DL / SATRip / DVDRip (сезон 1-17 + Дембельский альбом + Спин-офф + Фильм о фильме)

Ответить на тему
 
Автор Сообщение

nickson-82 ®

Стаж: 8 лет 4 месяца

Сообщений: 11545

Создавать темы 11-Апр-2021 11:42

[Цитировать]

Солдаты (2004-2013) WEB-DL / SATRip / DVDRip (сезон 1-17 + Дембельский альбом + Спин-офф + Фильм о фильме)- Производство: Россия / РЕН ТВ, продюсерский центр «Леан-М», студия «АН-фильм»
Жанр: драма, комедия, военный
Режиссер: Сергей Арланов, Лиза Клейнот, Влад Николаев
Актёры: Алексей Маклаков, Игнат Акрачков, Мария Аронова, Вячеслав Гришечкин, Анатолий Кощеев, Иван Моховиков, Софья Ануфриева, Максим Мальцев, Александр Пальчиков, Алексей Ошурков, Амаду Мамадаков, Антон Эльдаров, Борис Щербаков, Александр Лымарев, Ольга Фадеева, Роман Мадянов, Павел Майков и др.
Описание:
Действие происходит в некой воинской части, в городе у этой части, в квартирах персонажей. Показан быт и отношения солдат, сержантов, прапорщиков, офицеров и их ближайшего окружения.
Всё начинается с того, как два товарища, потерявшие связь друг с другом на гражданке, неожиданно встречаются в военкомате. Городской мажор и деревенский паренек теперь будут вместе тянуть армейскую лямку. Выполнение гражданского долга, как обычно, сопровождается большим количеством неприятностей.
Продолжительность: ~00:45:00 серия
Качество видео: WEB-DL / SATRip / DVDRip
От автора:
От себя добавлю что целью данного сборника было напомнить о самом грандиозном сериале о Российской армии 2000 годов, а также собрать всё в единое целое. Спустя 17 лет после выхода первого сезона многое поменялось, а многое осталось как и было. Все сезоны сериала показывались по обычному аналоговому ТВ, некоторые сезоны выходили на DVD дисках, но сейчас 2021 год и цифровые технологии шагают по миру. Основная линия сериала начала вещаться на цифровых ТВ площадках в сети, что позволило смотреть сериал не в "супер-мега" качестве но в несколько раз превышающее качество SATRip и DVDRip, что заметно даже на глаз. Основная линия сериала заметно прибавила в качестве но со с Спин-офф гораздо сложнее, вещания на цифровых платформах нет соответственно качество осталось на уровне 2000 годов и найти в лучшем качестве не представляется возможным на текущий момент. 1-17 качество WEB-DL взяты с официального канала youtube и more.tv, Спин-офф были добавленны из уже имеющихся раздач на множестве трекерав SATRip / DVDRip. В данной Раздаче весь материал предоставлен так как есть, мною не как не риповался и по классической схеме трекеров и правилам трекеров не подгонялся под один формат и один размер. Цель была: максимальное качество и полное собрание. Более подробное описание ниже по отдельности
Хронология сериала:
Хронологический порядок в котором стоит смотреть сериал (все сезоны, спин-оффы)
Солдаты 1 (16 серий) (2004)
Солдаты 1: Здравствуй рота Новый год (2 серии) (2004)
Солдаты 2 (16 серий) (2004)
Солдаты 2 : Спецвыпуск - 23 февраля (2 серии) (2004)
Солдаты 3 (16 серий) (2005)
Солдаты 4 (19 серий) (2005)
Солдаты 5 (19 серий) (2005)
Солдаты 6 (19 серий) (2006)
Солдаты 7 (16 серий) (2006)
Солдаты 8 (16 серий) (2006)
Солдаты 9 (20 серий) (2006)
Смальков двойной шантаж (8 серий) (2008)(далее персонажа Смалькова нет)
Солдаты 10 (20 серий) (2006)
Солдаты наизнанку (5 серий). Документальный (2006)
Солдаты 11 (12 серий) (2007)
Прапорщик или ё-моё (16 серий) (2007)(в 2009 году при показе на Рен-ТВ серии были включены в Солдаты-11 как 13-21 серии)
Солдаты 12 (50 серий) (2007)
Солдаты дембельский альбом (72 серии) подытог первых 12-ти сезонов (2008)
Солдаты 13 (64 серий) (2007)
Солдаты 13: Новый год! Твою дивизию! (2 серии) (2007) Смотреть между 32 и 33 серией 13 сезона.
Колобков настоящий полковник (8 серий) Начинать надо смотреть примерно с 33 серии 13 сезона (2007)
Морская душа (2007)
Бородин : возращение генерала (8 серий) (2008)
Солдаты 14 (64 серий) (2008)
Солдаты 15: Новый призыв (83 серий) (2008)
Солдаты 16: Дембель неизбежен (90 серий) (2010)
Скифская невеста (16-30 серии Солдаты: Дембель неизбежен). Сюжетная линия про Скифскую невесту резко отличается от основного сериала, и по сути придумана лишь для того, чтобы ввести в основной сюжет Папазогло (2010)
Солдаты 17: Снова в строю (20 серий) (2013)
Сезон 1 - 17 (Основной сюжет):
Сезон 01:
Год выпуска: 2004
Количество серий: 18
Продолжительность: ~00:47:00 серия

Описание: Призывниками не рождаются, а становятся. Два товарища, потерявшие связь друг с другом на гражданке, неожиданно встречаются в военкомате. Городской мажор и деревенский паренек теперь будут вместе тянуть армейскую лямку. Выполнение гражданского долга, как обычно, сопровождается большим количеством неприятностей. Главная напасть - "настоящий полковник" в исполнении Бориса Щербакова. Это хрестоматийный командир. Такие военачальники не переходят через Альпы, зато гарантированно становятся героями анекдотов. С новобранцами случаются обычные истории, присущие военной жизни: от "дедов" до самоволок. Иногда в расположение российских войск врываются неуставные романтические отношения. Медсестра, майор и рядовой - такому любовному треугольнику позавидовал бы и Шекспир. О том, как простая повестка в армию изменяет жизнь к лучшему. И что в военкомате есть вход, и нет выхода. О том, что не так страшна армия, как прапорщик Шматко и почему в армии нет официантов. А также почему плох тот солдат, который не смотрел "Солдаты".
1-14 - ютуб
Качество видео: WEB-DL
Формат: mp4
Видео: MPEG4 Video (H264) 1920x1080 24fps 2019kbps [V: ISO Media file produced by Google Inc. (h264 high L4.0, yuv420p, 1920x1080, 2019 kb/s)]
Аудио: AAC 44100Hz stereo 127kbps [A: ISO Media file produced by Google Inc. (aac lc, 44100 Hz, stereo, 127 kb/s)]
15, 16 - море тв
Качество видео: WEB-DL
Формат: ts
Видео: MPEG4 Video (H264) 720x576 25fps [V: h264 high L4.1, yuv420p, 720x576]
Аудио: AAC 48000Hz stereo 127kbps [A: aac lc, 48000 Hz, stereo, 127 kb/s]
17, 18 - море тв
Качество видео: WEB-DL
Формат: ts
Видео: MPEG4 Video (H264) 1874x1080 (59:34) 24fps [V: h264 high L4.1, yuv420p, 1874x1080]
Аудио: AAC 44100Hz stereo 145kbps [A: aac lc, 44100 Hz, stereo, 145 kb/s]
MediaInfo:
1-14 - ютуб
Общее
Полное имя : E:\Торренты (Temp)\Солдаты\Солдаты. 1-17 сезоны\Солдаты. 1 сезон\Солдаты. 1 сезон 1 серия.mp4
Формат : MPEG-4
Профиль формата : Base Media
Идентификатор кодека : isom (isom/iso2/avc1/mp41)
Размер файла : 723 Мбайт
Продолжительность : 48 м. 45 с.
Общий поток : 2 073 Кбит/сек
Название фильма : Солдаты. 1 сезон 1 серия
Программа кодирования : Lavf58.29.100
Обложка : Yes
Примечание : www.mediahuman.com
Видео
Идентификатор : 1
Формат : AVC
Формат/Информация : Advanced Video Codec
Профиль формата : [email protected]
Настройки формата : CABAC / 3 Ref Frames
Параметр CABAC формата : Да
Параметр RefFrames формата : 3 кадра
Идентификатор кодека : avc1
Идентификатор кодека/Информация : Advanced Video Coding
Продолжительность : 48 м. 45 с.
Битрейт : 1 940 Кбит/сек
Ширина : 1 920 пикселей
Высота : 1 080 пикселей
Соотношение сторон : 16:9
Режим частоты кадров : Постоянный
Частота кадров : 24,000 кадра/сек
Цветовое пространство : YUV
Субдискретизация насыщенности : 4:2:0
Битовая глубина : 8 бит
Тип развёртки : Прогрессивная
Бит/(Пиксели*Кадры) : 0.039
Размер потока : 676 Мбайт (94%)
Заголовок : ISO Media file produced by Google Inc.
Библиотека кодирования : x264 core 155 r2901 7d0ff22
Цветовой диапазон : Limited
Основные цвета : BT.709
Характеристики трансфера : BT.709
Коэффициенты матрицы : BT.709
Codec configuration box : avcC
Аудио
Идентификатор : 2
Формат : AAC LC
Формат/Информация : Advanced Audio Codec Low Complexity
Идентификатор кодека : mp4a-40-2
Продолжительность : 48 м. 45 с.
Вид битрейта : Постоянный
Битрейт : 128 Кбит/сек
Каналы : 2 канала
Channel layout : L R
Частота : 44,1 КГц
Частота кадров : 43,066 кадра/сек (1024 SPF)
Метод сжатия : С потерями
Размер потока : 44,6 Мбайт (6%)
Заголовок : ISO Media file produced by Google Inc.
Default : Да
Alternate group : 1
15, 16 - море тв
Общее
Идентификатор : 1 (0x1)
Полное имя : E:\Торренты (Temp)\Солдаты\Солдаты. 1-17 сезоны\Солдаты. 1 сезон\Солдаты. 1 сезон 15 серия.ts
Формат : MPEG-TS
Размер файла : 758 Мбайт
Продолжительность : 48 м. 33 с.
Режим общего битрейта : Переменный
Общий поток : 2 184 Кбит/сек
Видео
Идентификатор : 256 (0x100)
Идентификатор меню : 1 (0x1)
Формат : AVC
Формат/Информация : Advanced Video Codec
Профиль формата : [email protected]
Настройки формата : CABAC / 5 Ref Frames
Параметр CABAC формата : Да
Параметр RefFrames формата : 5 кадров
Параметр GOP формата : M=4, N=50
Идентификатор кодека : 27
Продолжительность : 48 м. 33 с.
Ширина : 720 пикселей
Высота : 576 пикселей
Соотношение сторон : 5:4
Частота кадров : 25,000 кадров/сек
Стандарт вещания : PAL
Цветовое пространство : YUV
Субдискретизация насыщенности : 4:2:0
Битовая глубина : 8 бит
Тип развёртки : Прогрессивная
Аудио
Идентификатор : 257 (0x101)
Идентификатор меню : 1 (0x1)
Формат : AAC LC
Формат/Информация : Advanced Audio Codec Low Complexity
Версия формата : Version 4
Режим смешивания : ADTS
Идентификатор кодека : 15-2
Продолжительность : 48 м. 32 с.
Вид битрейта : Переменный
Каналы : 2 канала
Channel layout : L R
Частота : 48,0 КГц
Частота кадров : 46,875 кадров/сек (1024 SPF)
Метод сжатия : С потерями
17, 18 - море тв
Общее
Идентификатор : 1 (0x1)
Полное имя : E:\Торренты (Temp)\Солдаты\Солдаты. 1-17 сезоны\Солдаты. 1 сезон\Солдаты. Здравствуй рота, Новый год! (1 спецсерия 1 сезона)..ts
Формат : MPEG-TS
Размер файла : 2,01 Гбайт
Продолжительность : 54 м. 23 с.
Режим общего битрейта : Переменный
Общий поток : 5 284 Кбит/сек
Видео
Идентификатор : 256 (0x100)
Идентификатор меню : 1 (0x1)
Формат : AVC
Формат/Информация : Advanced Video Codec
Профиль формата : [email protected]
Настройки формата : CABAC / 5 Ref Frames
Параметр CABAC формата : Да
Параметр RefFrames формата : 5 кадров
Идентификатор кодека : 27
Продолжительность : 54 м. 23 с.
Номинальный битрейт : 5 000 Кбит/сек
Ширина : 1 874 пикселя
Высота : 1 080 пикселей
Соотношение сторон : 1,735
Режим частоты кадров : Переменный
Цветовое пространство : YUV
Субдискретизация насыщенности : 4:2:0
Битовая глубина : 8 бит
Тип развёртки : Прогрессивная
Библиотека кодирования : x264 core 148
Настройки программы : cabac=1 / ref=5 / deblock=1:0:0 / analyse=0x3:0x113 / me=hex / subme=8 / psy=1 / psy_rd=1.00:0.00 / mixed_ref=1 / me_range=16 / chroma_me=1 / trellis=2 / 8x8dct=1 / cqm=0 / deadzone=21,11 / fast_pskip=1 / chroma_qp_offset=-2 / threads=34 / lookahead_threads=5 / sliced_threads=0 / nr=0 / decimate=1 / interlaced=0 / bluray_compat=0 / constrained_intra=0 / bframes=3 / b_pyramid=2 / b_adapt=1 / b_bias=0 / direct=3 / weightb=1 / open_gop=0 / weightp=2 / keyint=250 / keyint_min=24 / scenecut=0 / intra_refresh=0 / rc_lookahead=50 / rc=abr / mbtree=1 / bitrate=5000 / ratetol=1.0 / qcomp=0.60 / qpmin=0 / qpmax=69 / qpstep=4 / ip_ratio=1.40 / aq=1:1.00
Аудио
Идентификатор : 257 (0x101)
Идентификатор меню : 1 (0x1)
Формат : AAC LC
Формат/Информация : Advanced Audio Codec Low Complexity
Версия формата : Version 4
Режим смешивания : ADTS
Идентификатор кодека : 15-2
Продолжительность : 54 м. 23 с.
Вид битрейта : Переменный
Каналы : 2 канала
Channel layout : L R
Частота : 44,1 КГц
Частота кадров : 43,066 кадра/сек (1024 SPF)
Метод сжатия : С потерями
Задержка видео : -250 мс.
Скриншоты:
1-14 - ютуб

15, 16 - море тв

17, 18 - море тв
Сезон 02:
Год выпуска: 2004
Количество серий: 18
Продолжительность: ~00:47:00 серия

Описание: Во второй части сериала главные герои, отслужив год, становятся «черпаками». Их армейская жизнь постепенно обрастает маленькими прелестями: свой человек Вакутагин кашеварит на кухне, свой человек Соколов заведует каптеркой. «Черпаки» уже могут переложить какую-то часть своего священного долга перед родиной на плечи «духов», хотя, конечно, послужить придется и им. Во второй части солдатам все чаще придется становиться героями. Рискуя под пулями жизнью, они спасают детей, отбивают нападение на военный склад, обезвреживают вооруженных зеков и не дают прозвучать эху Второй Мировой войны. В качестве разминки солдаты устраивают праведную драку в одном общежитии и демонстрируют распоясавшимся скинхедам свою лучшую тренировку по рукопашному бою.
В «Солдатах 2» много любовных хитросплетений. Подлый подполковник, медсестра и рядовой с новой энергией будут любить и ненавидеть друг друга. Изнурительные позиционные бои на личном фронте окончательно избавят подлого подполковника от всего человеческого, и он встанет на скользкий путь маньяка-любителя. Любовь придет и в солдатский чепок, где заслуженная буфетчица воспылает нежным чувством к молоденькому лейтенанту. Ну и, конечно, большие перемены в личной жизни ожидают прапорщика Шматко. Этот легендарный герой по-прежнему в центре всеобщего внимания. Его выходки все так же вдумчиво нелепы и смешны.
1-16 - ютуб
Качество видео: WEB-DL
Формат: mp4
Видео: MPEG4 Video (H264) 1920x1080 24fps 1969kbps [V: ISO Media file produced by Google Inc. (h264 high L4.0, yuv420p, 1920x1080, 1969 kb/s)]
Аудио: AAC 44100Hz stereo 127kbps [A: ISO Media file produced by Google Inc. (aac lc, 44100 Hz, stereo, 127 kb/s)]
17-18 - море тв
Качество видео: WEB-DL
Формат: ts
Видео: MPEG4 Video (H264) 1874x1080 (59:34) 24fps [V: h264 high L4.1, yuv420p, 1874x1080]
Аудио: AAC 44100Hz stereo 143kbps [A: aac lc, 44100 Hz, stereo, 143 kb/s]
MediaInfo:
1-16 - ютуб
Общее
Полное имя : E:\Торренты (Temp)\Солдаты\Солдаты. 1-17 сезоны\Солдаты. 2 сезон\Солдаты. 2 сезон 1 серия.mp4
Формат : MPEG-4
Профиль формата : Base Media
Идентификатор кодека : isom (isom/iso2/avc1/mp41)
Размер файла : 753 Мбайт
Продолжительность : 50 м. 3 с.
Общий поток : 2 104 Кбит/сек
Название фильма : Солдаты. 2 сезон 1 серия
Программа кодирования : Lavf58.29.100
Обложка : Yes
Примечание : www.mediahuman.com
Видео
Идентификатор : 1
Формат : AVC
Формат/Информация : Advanced Video Codec
Профиль формата : [email protected]
Настройки формата : CABAC / 3 Ref Frames
Параметр CABAC формата : Да
Параметр RefFrames формата : 3 кадра
Идентификатор кодека : avc1
Идентификатор кодека/Информация : Advanced Video Coding
Продолжительность : 50 м. 3 с.
Битрейт : 1 970 Кбит/сек
Ширина : 1 920 пикселей
Высота : 1 080 пикселей
Соотношение сторон : 16:9
Режим частоты кадров : Постоянный
Частота кадров : 24,000 кадра/сек
Цветовое пространство : YUV
Субдискретизация насыщенности : 4:2:0
Битовая глубина : 8 бит
Тип развёртки : Прогрессивная
Бит/(Пиксели*Кадры) : 0.040
Размер потока : 705 Мбайт (94%)
Заголовок : ISO Media file produced by Google Inc.
Библиотека кодирования : x264 core 155 r2901 7d0ff22
Цветовой диапазон : Limited
Основные цвета : BT.709
Характеристики трансфера : BT.709
Коэффициенты матрицы : BT.709
Codec configuration box : avcC
Аудио
Идентификатор : 2
Формат : AAC LC
Формат/Информация : Advanced Audio Codec Low Complexity
Идентификатор кодека : mp4a-40-2
Продолжительность : 50 м. 3 с.
Вид битрейта : Постоянный
Битрейт : 128 Кбит/сек
Каналы : 2 канала
Channel layout : L R
Частота : 44,1 КГц
Частота кадров : 43,066 кадра/сек (1024 SPF)
Метод сжатия : С потерями
Размер потока : 45,8 Мбайт (6%)
Заголовок : ISO Media file produced by Google Inc.
Default : Да
Alternate group : 1
17-18 - море тв
Общее
Идентификатор : 1 (0x1)
Полное имя : E:\Торренты (Temp)\Солдаты\Солдаты. 1-17 сезоны\Солдаты. 2 сезон\Солдаты. День защитника Отечества. (1 спецсерия 2 сезона)..ts
Формат : MPEG-TS
Размер файла : 1,99 Гбайт
Продолжительность : 54 м. 3 с.
Режим общего битрейта : Переменный
Общий поток : 5 276 Кбит/сек
Видео
Идентификатор : 256 (0x100)
Идентификатор меню : 1 (0x1)
Формат : AVC
Формат/Информация : Advanced Video Codec
Профиль формата : [email protected]
Настройки формата : CABAC / 5 Ref Frames
Параметр CABAC формата : Да
Параметр RefFrames формата : 5 кадров
Идентификатор кодека : 27
Продолжительность : 54 м. 3 с.
Номинальный битрейт : 5 000 Кбит/сек
Ширина : 1 874 пикселя
Высота : 1 080 пикселей
Соотношение сторон : 1,735
Режим частоты кадров : Переменный
Цветовое пространство : YUV
Субдискретизация насыщенности : 4:2:0
Битовая глубина : 8 бит
Тип развёртки : Прогрессивная
Библиотека кодирования : x264 core 148
Настройки программы : cabac=1 / ref=5 / deblock=1:0:0 / analyse=0x3:0x113 / me=hex / subme=8 / psy=1 / psy_rd=1.00:0.00 / mixed_ref=1 / me_range=16 / chroma_me=1 / trellis=2 / 8x8dct=1 / cqm=0 / deadzone=21,11 / fast_pskip=1 / chroma_qp_offset=-2 / threads=34 / lookahead_threads=5 / sliced_threads=0 / nr=0 / decimate=1 / interlaced=0 / bluray_compat=0 / constrained_intra=0 / bframes=3 / b_pyramid=2 / b_adapt=1 / b_bias=0 / direct=3 / weightb=1 / open_gop=0 / weightp=2 / keyint=250 / keyint_min=24 / scenecut=0 / intra_refresh=0 / rc_lookahead=50 / rc=abr / mbtree=1 / bitrate=5000 / ratetol=1.0 / qcomp=0.60 / qpmin=0 / qpmax=69 / qpstep=4 / ip_ratio=1.40 / aq=1:1.00
Аудио
Идентификатор : 257 (0x101)
Идентификатор меню : 1 (0x1)
Формат : AAC LC
Формат/Информация : Advanced Audio Codec Low Complexity
Версия формата : Version 4
Режим смешивания : ADTS
Идентификатор кодека : 15-2
Продолжительность : 54 м. 3 с.
Вид битрейта : Переменный
Каналы : 2 канала
Channel layout : L R
Частота : 44,1 КГц
Частота кадров : 43,066 кадра/сек (1024 SPF)
Метод сжатия : С потерями
Задержка видео : -83 мс.
Скриншоты:
1-16 - ютуб

17-18 - море тв
Сезон 03:
Год выпуска: 2005
Количество серий: 16
Продолжительность: ~00:47:00 серия

Описание: Над знакомой воинской частью нависла угроза расформирования. У всех стресс: командиру части майору Зубову (всюду мерещатся штабные проверки, солдатам мерещатся сверхурочные работы.
В часть прибывает новая красавица-медсестра. Офицеры деморализованы. Солдаты на глазах теряют боеготовность. Чтобы вернуть мысли подчиненных к защите родины, командир части проводит антисексуальную революцию.
На вторую роту обрушивается несчастье в лице нового ротного, капитана Кудашова.Последний раз таких чутких офицеров плодил Третий рейх.
Старые герои служат лучше прежнего и влипают в новые приключения...
1-16 - ютуб
Качество видео: WEB-DL
Формат: mp4
Видео: MPEG4 Video (H264) 1920x1080 24fps 1778kbps [V: ISO Media file produced by Google Inc. (h264 high L4.0, yuv420p, 1920x1080, 1778 kb/s)]
Аудио: AAC 44100Hz stereo 128kbps [A: ISO Media file produced by Google Inc. (aac lc, 44100 Hz, stereo, 128 kb/s)]
MediaInfo:
Общее
Полное имя : E:\Торренты (Temp)\Солдаты\Солдаты. 1-17 сезоны\Солдаты. 3 сезон\Солдаты. 3 сезон 1 серия.mp4
Формат : MPEG-4
Профиль формата : Base Media
Идентификатор кодека : isom (isom/iso2/avc1/mp41)
Размер файла : 678 Мбайт
Продолжительность : 49 м. 33 с.
Общий поток : 1 913 Кбит/сек
Название фильма : Солдаты. 3 сезон 1 серия
Программа кодирования : Lavf58.29.100
Обложка : Yes
Примечание : www.mediahuman.com
Видео
Идентификатор : 1
Формат : AVC
Формат/Информация : Advanced Video Codec
Профиль формата : [email protected]
Настройки формата : CABAC / 3 Ref Frames
Параметр CABAC формата : Да
Параметр RefFrames формата : 3 кадра
Идентификатор кодека : avc1
Идентификатор кодека/Информация : Advanced Video Coding
Продолжительность : 49 м. 32 с.
Битрейт : 1 779 Кбит/сек
Ширина : 1 920 пикселей
Высота : 1 080 пикселей
Соотношение сторон : 16:9
Режим частоты кадров : Постоянный
Частота кадров : 24,000 кадра/сек
Цветовое пространство : YUV
Субдискретизация насыщенности : 4:2:0
Битовая глубина : 8 бит
Тип развёртки : Прогрессивная
Бит/(Пиксели*Кадры) : 0.036
Размер потока : 630 Мбайт (93%)
Заголовок : ISO Media file produced by Google Inc.
Библиотека кодирования : x264 core 155 r2901 7d0ff22
Цветовой диапазон : Limited
Основные цвета : BT.709
Характеристики трансфера : BT.709
Коэффициенты матрицы : BT.709
Codec configuration box : avcC
Аудио
Идентификатор : 2
Формат : AAC LC
Формат/Информация : Advanced Audio Codec Low Complexity
Идентификатор кодека : mp4a-40-2
Продолжительность : 49 м. 33 с.
Вид битрейта : Постоянный
Битрейт : 128 Кбит/сек
Каналы : 2 канала
Channel layout : L R
Частота : 44,1 КГц
Частота кадров : 43,066 кадра/сек (1024 SPF)
Метод сжатия : С потерями
Размер потока : 45,4 Мбайт (7%)
Заголовок : ISO Media file produced by Google Inc.
Default : Да
Alternate group : 1
Скриншоты:
Сезон 04:
Год выпуска: 2005
Количество серий: 19
Продолжительность: ~00:47:00 серия

Описание:Практически все персонажи, знакомые зрителям по «третьим» «Солдатам», переходят в четвертый сезон. За исключением младшего сержанты Нелипы (Кирилл Плетнев). Вместо него из Штаба округа в мотострелковую часть присылают другого одаренного в художественном смысле сержанта. Юрий Самсонов достойно нес службу в тепленьком месте, пока не соблазнил дочь полковника из штаба. Любвеобильного Самсонова посылают подальше от греха и от Штаба округа.
Но и на новом месте службы сержант, наделенный от природы пылкой душой, находит новый объект для своих эротических устремлений — медсестру Ларису (Екатерина Юдина). Их сближению поневоле способствует капитан Кудашов (Павел Майков), у которого, впрочем, свои виды на Ларису. В этом любовном треугольнике преимущество то и дело переходит от Самсонова к Кудашову и наоборот. Вот только от сержанта и капитана в этой игре ничего не зависит… фигурки по своему усмотрению передвигает расчетливая медсестра.
1-19 - ютуб
Качество видео: WEB-DL
Формат: mp4
Видео: MPEG4 Video (H264) 1920x1080 24fps 1820kbps [V: ISO Media file produced by Google Inc. (h264 high L4.0, yuv420p, 1920x1080, 1820 kb/s)]
Аудио: AAC 44100Hz stereo 128kbps [A: ISO Media file produced by Google Inc. (aac lc, 44100 Hz, stereo, 128 kb/s)]
MediaInfo:
Общее
Полное имя : E:\Торренты (Temp)\Солдаты\Солдаты. 1-17 сезоны\Солдаты. 4 сезон\Солдаты. 4 сезон 1 серия.mp4
Формат : MPEG-4
Профиль формата : Base Media
Идентификатор кодека : isom (isom/iso2/avc1/mp41)
Размер файла : 691 Мбайт
Продолжительность : 49 м. 28 с.
Общий поток : 1 954 Кбит/сек
Название фильма : Солдаты. 4 сезон 1 серия
Программа кодирования : Lavf58.29.100
Обложка : Yes
Примечание : www.mediahuman.com
Видео
Идентификатор : 1
Формат : AVC
Формат/Информация : Advanced Video Codec
Профиль формата : [email protected]
Настройки формата : CABAC / 3 Ref Frames
Параметр CABAC формата : Да
Параметр RefFrames формата : 3 кадра
Идентификатор кодека : avc1
Идентификатор кодека/Информация : Advanced Video Coding
Продолжительность : 49 м. 28 с.
Битрейт : 1 820 Кбит/сек
Ширина : 1 920 пикселей
Высота : 1 080 пикселей
Соотношение сторон : 16:9
Режим частоты кадров : Постоянный
Частота кадров : 24,000 кадра/сек
Цветовое пространство : YUV
Субдискретизация насыщенности : 4:2:0
Битовая глубина : 8 бит
Тип развёртки : Прогрессивная
Бит/(Пиксели*Кадры) : 0.037
Размер потока : 644 Мбайт (93%)
Заголовок : ISO Media file produced by Google Inc.
Библиотека кодирования : x264 core 155 r2901 7d0ff22
Цветовой диапазон : Limited
Основные цвета : BT.709
Характеристики трансфера : BT.709
Коэффициенты матрицы : BT.709
Codec configuration box : avcC
Аудио
Идентификатор : 2
Формат : AAC LC
Формат/Информация : Advanced Audio Codec Low Complexity
Идентификатор кодека : mp4a-40-2
Продолжительность : 49 м. 28 с.
Вид битрейта : Постоянный
Битрейт : 128 Кбит/сек
Каналы : 2 канала
Channel layout : L R
Частота : 44,1 КГц
Частота кадров : 43,066 кадра/сек (1024 SPF)
Метод сжатия : С потерями
Размер потока : 45,3 Мбайт (7%)
Заголовок : ISO Media file produced by Google Inc.
Default : Да
Alternate group : 1
Скриншоты:
Сезон 05:
Год выпуска: 2005
Количество серий: 19
Продолжительность: ~00:47:00 серия

Описание: В новом сезоне "Солдат" создатели популярного сериала пытаются поставить точки там, где они должны стоять. Но при этом дают новое развитие вечной истории о службе в армии. В новых "Солдатах" в воинскую часть приезжают новые солдаты. В них угадываются черты тех, кто совсем недавно участвовал в покорении воинской науки и телевизионных рейтингов. Но - это совсем другие солдаты, с характерами и привычками, присущими следующему поколению новобранцев.
"Солдаты 5" - это еще и сезон расставаний. Вслед за "солдатами", оставившими расположение воинской части в четвертом сезоне, сериал покидает еще один персонаж. Но о нем многие из нас вместо добрых слов предпочли бы не говорить ничего. И вовсе не потому, что по сценарию ему уготована не лучшая доля…
1-19 - ютуб
Качество видео: WEB-DL
Формат: mp4
Видео: MPEG4 Video (H264) 1920x1080 24fps 1997kbps [V: ISO Media file produced by Google Inc. (h264 high L4.0, yuv420p, 1920x1080, 1997 kb/s)]
Аудио: AAC 44100Hz stereo 128kbps [A: ISO Media file produced by Google Inc. (aac lc, 44100 Hz, stereo, 128 kb/s)]
9 - море тв
Качество видео: WEB-DL
Формат: ts
Видео: MPEG4 Video (H264) 720x576 25fps [V: h264 high L4.1, yuv420p, 720x576]
Аудио: AAC 48000Hz stereo 127kbps [A: aac lc, 48000 Hz, stereo, 127 kb/s]
MediaInfo:
1-19 - ютуб
Общее
Полное имя : E:\Торренты (Temp)\Солдаты\Солдаты. 1-17 сезоны\Солдаты. 5 Сезон\Солдаты. 5 сезон 1 серия.mp4
Формат : MPEG-4
Профиль формата : Base Media
Идентификатор кодека : isom (isom/iso2/avc1/mp41)
Размер файла : 754 Мбайт
Продолжительность : 49 м. 26 с.
Общий поток : 2 132 Кбит/сек
Название фильма : Солдаты. 5 сезон 1 серия
Программа кодирования : Lavf58.29.100
Обложка : Yes
Примечание : www.mediahuman.com
Видео
Идентификатор : 1
Формат : AVC
Формат/Информация : Advanced Video Codec
Профиль формата : [email protected]
Настройки формата : CABAC / 3 Ref Frames
Параметр CABAC формата : Да
Параметр RefFrames формата : 3 кадра
Идентификатор кодека : avc1
Идентификатор кодека/Информация : Advanced Video Coding
Продолжительность : 49 м. 26 с.
Битрейт : 1 998 Кбит/сек
Ширина : 1 920 пикселей
Высота : 1 080 пикселей
Соотношение сторон : 16:9
Режим частоты кадров : Постоянный
Частота кадров : 24,000 кадра/сек
Цветовое пространство : YUV
Субдискретизация насыщенности : 4:2:0
Битовая глубина : 8 бит
Тип развёртки : Прогрессивная
Бит/(Пиксели*Кадры) : 0.040
Размер потока : 707 Мбайт (94%)
Заголовок : ISO Media file produced by Google Inc.
Библиотека кодирования : x264 core 155 r2901 7d0ff22
Цветовой диапазон : Limited
Основные цвета : BT.709
Характеристики трансфера : BT.709
Коэффициенты матрицы : BT.709
Codec configuration box : avcC
Аудио
Идентификатор : 2
Формат : AAC LC
Формат/Информация : Advanced Audio Codec Low Complexity
Идентификатор кодека : mp4a-40-2
Продолжительность : 49 м. 26 с.
Вид битрейта : Постоянный
Битрейт : 128 Кбит/сек
Каналы : 2 канала
Channel layout : L R
Частота : 44,1 КГц
Частота кадров : 43,066 кадра/сек (1024 SPF)
Метод сжатия : С потерями
Размер потока : 45,3 Мбайт (6%)
Заголовок : ISO Media file produced by Google Inc.
Default : Да
Alternate group : 1
9 - море тв
Общее
Идентификатор : 1 (0x1)
Полное имя : E:\Торренты (Temp)\Солдаты\Солдаты. 1-17 сезоны\Солдаты. 5 Сезон\Солдаты. 5 сезон 9 серия.ts
Формат : MPEG-TS
Размер файла : 742 Мбайт
Продолжительность : 47 м. 30 с.
Режим общего битрейта : Переменный
Общий поток : 2 184 Кбит/сек
Видео
Идентификатор : 256 (0x100)
Идентификатор меню : 1 (0x1)
Формат : AVC
Формат/Информация : Advanced Video Codec
Профиль формата : [email protected]
Настройки формата : CABAC / 5 Ref Frames
Параметр CABAC формата : Да
Параметр RefFrames формата : 5 кадров
Параметр GOP формата : M=4, N=50
Идентификатор кодека : 27
Продолжительность : 47 м. 30 с.
Ширина : 720 пикселей
Высота : 576 пикселей
Соотношение сторон : 5:4
Частота кадров : 25,000 кадров/сек
Стандарт вещания : PAL
Цветовое пространство : YUV
Субдискретизация насыщенности : 4:2:0
Битовая глубина : 8 бит
Тип развёртки : Прогрессивная
Аудио
Идентификатор : 257 (0x101)
Идентификатор меню : 1 (0x1)
Формат : AAC LC
Формат/Информация : Advanced Audio Codec Low Complexity
Версия формата : Version 4
Режим смешивания : ADTS
Идентификатор кодека : 15-2
Продолжительность : 47 м. 30 с.
Вид битрейта : Переменный
Каналы : 2 канала
Channel layout : L R
Частота : 48,0 КГц
Частота кадров : 46,875 кадров/сек (1024 SPF)
Метод сжатия : С потерями
Скриншоты:
1-19 - ютуб

9 - море тв
Сезон 06:
Год выпуска: 2005
Количество серий: 16
Продолжительность: ~00:43:00 серия

Описание: Со временем Пал Терентьич Бородин закончил Академию Генерального Штаба. В родную часть он возвращается в звании генерала-майора и при должности командира дивизии, а Виктор Романыч Колобков женился. Новой избранницей Виктора стала Виктория, девушка с живыми воспоминаниями о кочевом гарнизонном детстве и с развернутой сетью аптек. Из хорошего солдата Михаил Медведев превратился в заботливого мужа и успешного предпринимателя. Он занимается фармацевтическим бизнесом. За его успехами ревностно наблюдают Колобковы...
1-16 - ютуб
Качество видео: WEB-DL
Формат: mp4
Видео: MPEG4 Video (H264) 1920x1080 24fps 2125kbps [V: ISO Media file produced by Google Inc. (h264 high L4.0, yuv420p, 1920x1080, 2125 kb/s)]
Аудио: AAC 44100Hz stereo 127kbps [A: ISO Media file produced by Google Inc. (aac lc, 44100 Hz, stereo, 127 kb/s)]
MediaInfo:
Общее
Полное имя : E:\Торренты (Temp)\Солдаты\Солдаты. 1-17 сезоны\Солдаты. 6 сезон\Солдаты. 6 сезон 1 серия.mp4
Формат : MPEG-4
Профиль формата : Base Media
Идентификатор кодека : isom (isom/iso2/avc1/mp41)
Размер файла : 775 Мбайт
Продолжительность : 47 м. 56 с.
Общий поток : 2 259 Кбит/сек
Название фильма : Солдаты. 6 сезон 1 серия
Программа кодирования : Lavf58.29.100
Обложка : Yes
Примечание : www.mediahuman.com
Видео
Идентификатор : 1
Формат : AVC
Формат/Информация : Advanced Video Codec
Профиль формата : [email protected]
Настройки формата : CABAC / 3 Ref Frames
Параметр CABAC формата : Да
Параметр RefFrames формата : 3 кадра
Идентификатор кодека : avc1
Идентификатор кодека/Информация : Advanced Video Coding
Продолжительность : 47 м. 56 с.
Битрейт : 2 125 Кбит/сек
Ширина : 1 920 пикселей
Высота : 1 080 пикселей
Соотношение сторон : 16:9
Режим частоты кадров : Постоянный
Частота кадров : 24,000 кадра/сек
Цветовое пространство : YUV
Субдискретизация насыщенности : 4:2:0
Битовая глубина : 8 бит
Тип развёртки : Прогрессивная
Бит/(Пиксели*Кадры) : 0.043
Размер потока : 729 Мбайт (94%)
Заголовок : ISO Media file produced by Google Inc.
Библиотека кодирования : x264 core 155 r2901 7d0ff22
Цветовой диапазон : Limited
Основные цвета : BT.709
Характеристики трансфера : BT.709
Коэффициенты матрицы : BT.709
Codec configuration box : avcC
Аудио
Идентификатор : 2
Формат : AAC LC
Формат/Информация : Advanced Audio Codec Low Complexity
Идентификатор кодека : mp4a-40-2
Продолжительность : 47 м. 56 с.
Вид битрейта : Постоянный
Битрейт : 128 Кбит/сек
Каналы : 2 канала
Channel layout : L R
Частота : 44,1 КГц
Частота кадров : 43,066 кадра/сек (1024 SPF)
Метод сжатия : С потерями
Размер потока : 43,9 Мбайт (6%)
Заголовок : ISO Media file produced by Google Inc.
Default : Да
Alternate group : 1
Скриншоты:
Сезон 07:
Год выпуска: 2006
Количество серий: 16
Продолжительность: ~00:43:00 серия

Описание:В седьмом сезоне популярного сериала "Солдаты" продолжаются линии, начатые в шестой части проекта. Конфронтация Медведевых и Колобковых приобретает особенную остроту. В аптеках Михаила Медведева (Александр Лымарев) начинаются ожесточенные инспекторские проверки. Предприниматель понимает, что инспекции имеют заказной характер, проверяющих засылают конкуренты. Но кто именно? Медведевы долго бьются над сложным ребусом, пока однажды Михаил не узнает имя своего главного соперника.
Вездесущий Шматко (Алексей Маклаков) всерьез озабочен ремонтом своей новой квартиры, поэтому его можно найти практически везде. Но только не в части. Очень часто "за Шматко" на горяче-смазочном хозяйстве остается его помощник сержант Скрипка (Илья Белокобыльский), лишенный полномочий своего шефа. Заправка автомобилей в части приобретает стихийный характер. Это всерьез злит командира части Зубова (Алексей Ошурков). Он грозится санкциями. Но Шматко умудряется отделаться легким испугом и в этот раз.
Смальков (Игнат Акрачков) получает капитана и уходит в краткосрочный "декретный" отпуск. В его отсутствие во второй роте начинается капитанская карусель. Истории с рождением смальковского наследника авторы придали легкий комедийный оттенок.
1-16 - море тв
Качество видео: WEB-DL
Формат: ts
Видео: MPEG4 Video (H264) 704x534 (91:69) 25fps [V: h264 high L4.1, yuv420p, 704x534]
Аудио: AAC 44100Hz stereo 138kbps [A: aac lc, 44100 Hz, stereo, 138 kb/s]
MediaInfo:
Общее
Идентификатор : 1 (0x1)
Полное имя : E:\Торренты (Temp)\Солдаты\Солдаты. 1-17 сезоны\Солдаты. 7 сезон\Cолдаты. 7 сезон 1 серия.ts
Формат : MPEG-TS
Размер файла : 526 Мбайт
Продолжительность : 45 м. 51 с.
Режим общего битрейта : Переменный
Общий поток : 1 603 Кбит/сек
Видео
Идентификатор : 256 (0x100)
Идентификатор меню : 1 (0x1)
Формат : AVC
Формат/Информация : Advanced Video Codec
Профиль формата : [email protected]
Настройки формата : CABAC / 5 Ref Frames
Параметр CABAC формата : Да
Параметр RefFrames формата : 5 кадров
Идентификатор кодека : 27
Продолжительность : 45 м. 51 с.
Номинальный битрейт : 1 400 Кбит/сек
Ширина : 704 пикселя
Высота : 534 пикселя
Соотношение сторон : 4:3
Режим частоты кадров : Переменный
Цветовое пространство : YUV
Субдискретизация насыщенности : 4:2:0
Битовая глубина : 8 бит
Тип развёртки : Прогрессивная
Библиотека кодирования : x264 core 148
Настройки программы : cabac=1 / ref=5 / deblock=1:0:0 / analyse=0x3:0x113 / me=hex / subme=8 / psy=1 / psy_rd=1.00:0.00 / mixed_ref=1 / me_range=16 / chroma_me=1 / trellis=2 / 8x8dct=1 / cqm=0 / deadzone=21,11 / fast_pskip=1 / chroma_qp_offset=-2 / threads=1 / lookahead_threads=1 / sliced_threads=0 / nr=0 / decimate=1 / interlaced=0 / bluray_compat=0 / constrained_intra=0 / bframes=3 / b_pyramid=2 / b_adapt=1 / b_bias=0 / direct=3 / weightb=1 / open_gop=0 / weightp=2 / keyint=250 / keyint_min=25 / scenecut=0 / intra_refresh=0 / rc_lookahead=50 / rc=abr / mbtree=1 / bitrate=1400 / ratetol=1.0 / qcomp=0.60 / qpmin=0 / qpmax=69 / qpstep=4 / ip_ratio=1.40 / aq=1:1.00
Аудио
Идентификатор : 257 (0x101)
Идентификатор меню : 1 (0x1)
Формат : AAC LC
Формат/Информация : Advanced Audio Codec Low Complexity
Версия формата : Version 4
Режим смешивания : ADTS
Идентификатор кодека : 15-2
Продолжительность : 45 м. 51 с.
Вид битрейта : Переменный
Каналы : 2 канала
Channel layout : L R
Частота : 44,1 КГц
Частота кадров : 43,066 кадра/сек (1024 SPF)
Метод сжатия : С потерями
Задержка видео : -80 мс.
Скриншоты:
Сезон 08:
Год выпуска: 2006
Количество серий: 16
Продолжительность: ~00:43:00 серия

Описание: Главными героями поистине драматических событий остаются представители двух семей - Колобковы и Медведевы. Коварство и бескомпромиссность Колобковых переходят в решающую фазу. Виктор и Виктория решают поставить "крест" на бизнесе Медведева, ну или как минимум стать его владельцами. В этом деле ключевую роль играет злой гений подполковника Колобкова. Но - даже на хитрющего Колобка, как оказывается, всегда найдется решительный и не менее хитрый Медведь. Противостояние давних неприятелей достигает наивысшего напряжения…
Тем временем жизнь обитателей воинской части катит в заданном сценаристами направлении. В Цлаве просыпаются задремавшие было странности, а его увеличенная копия Папазогло объявляет, что собирается стать прапорщиком, чем производит фурор в части и приводит в легкое замешательство командование. Прапорщик Данилыч перенимает боксерский опыт у капитана Смалькова, а прапор Шматко вместе с семьей обживается на новом месте и принимает стратегически важное решение - сдавать тещину квартиру. Его жильцом становится еще один прапорщик. Авторы проекта делают заметный реверанс в сторону обладателей самого почетного воинского звания.
1-16 - море тв
Качество видео: WEB-DL
Формат: ts
Видео: MPEG4 Video (H264) 704x534 (91:69) 25fps [V: h264 high L4.1, yuv420p, 704x534]
Аудио: AAC 44100Hz stereo 130kbps [A: aac lc, 44100 Hz, stereo, 130 kb/s]
MediaInfo:
Общее
Идентификатор : 1 (0x1)
Полное имя : E:\Торренты (Temp)\Солдаты\Солдаты. 1-17 сезоны\Солдаты. 8 сезон\Солдаты. 8 сезон 1 серия.ts
Формат : MPEG-TS
Размер файла : 525 Мбайт
Продолжительность : 45 м. 52 с.
Режим общего битрейта : Переменный
Общий поток : 1 601 Кбит/сек
Видео
Идентификатор : 256 (0x100)
Идентификатор меню : 1 (0x1)
Формат : AVC
Формат/Информация : Advanced Video Codec
Профиль формата : [email protected]
Настройки формата : CABAC / 5 Ref Frames
Параметр CABAC формата : Да
Параметр RefFrames формата : 5 кадров
Идентификатор кодека : 27
Продолжительность : 45 м. 52 с.
Номинальный битрейт : 1 400 Кбит/сек
Ширина : 704 пикселя
Высота : 534 пикселя
Соотношение сторон : 4:3
Режим частоты кадров : Переменный
Цветовое пространство : YUV
Субдискретизация насыщенности : 4:2:0
Битовая глубина : 8 бит
Тип развёртки : Прогрессивная
Библиотека кодирования : x264 core 148
Настройки программы : cabac=1 / ref=5 / deblock=1:0:0 / analyse=0x3:0x113 / me=umh / subme=8 / psy=1 / psy_rd=1.00:0.00 / mixed_ref=1 / me_range=16 / chroma_me=1 / trellis=1 / 8x8dct=1 / cqm=0 / deadzone=21,11 / fast_pskip=1 / chroma_qp_offset=-2 / threads=1 / lookahead_threads=1 / sliced_threads=0 / nr=0 / decimate=1 / interlaced=0 / bluray_compat=0 / constrained_intra=0 / bframes=3 / b_pyramid=2 / b_adapt=2 / b_bias=0 / direct=3 / weightb=1 / open_gop=0 / weightp=2 / keyint=250 / keyint_min=25 / scenecut=0 / intra_refresh=0 / rc_lookahead=50 / rc=abr / mbtree=1 / bitrate=1400 / ratetol=1.0 / qcomp=0.60 / qpmin=0 / qpmax=69 / qpstep=4 / ip_ratio=1.40 / aq=1:1.00
Аудио
Идентификатор : 257 (0x101)
Идентификатор меню : 1 (0x1)
Формат : AAC LC
Формат/Информация : Advanced Audio Codec Low Complexity
Версия формата : Version 4
Режим смешивания : ADTS
Идентификатор кодека : 15-2
Продолжительность : 45 м. 52 с.
Вид битрейта : Переменный
Каналы : 2 канала
Channel layout : L R
Частота : 44,1 КГц
Частота кадров : 43,066 кадра/сек (1024 SPF)
Метод сжатия : С потерями
Задержка видео : -80 мс.
Скриншоты:
Сезон 09:
Год выпуска: 2006
Количество серий: 20
Продолжительность: ~00:43:00 серия

Описание:Главная интрига продолжения популярного сериала - коварный Колобков избегает перевода на Сахалин, он остается в родных пенатах, чтобы свести счеты со своим извечным неприятелем - Медведевым.
Герои сериала "Солдаты 9" действуют сразу на трех фронтах.
На первом - личном фронте - усердствуют капитан Дубин, рядовой Носов и чепочница Зотова. Все они пытаются добиться взаимности от людей, которые занимают особенное место в их сердцах. Герои идут в атаку и оголяют тылы. Тогда мы узнаем, что капитан Дубин способен не только оправдывать свою фамилию, но и говорить высоким штилем о самом прекрасном из чувств, рядовой Носов в состоянии поразить симпатичную библиотекаршу роскошнейшим букетом и убедительным знанием мировой классики, а чепочница Зотова готова научиться играть на бильярде, в надежде составить партию молодому бизнесмену.
На втором фронте - без перемен: солдаты и офицеры несут свою службу. С честью, с юморком или кто как может. По плохой армейской традиции в их жизненные распорядки вдруг откуда-то сверху сваливаются очередные учения. В них "красным" (нашим) предстоит одержать верх над "синими" (не нашими). Но не одними учениями загружены будни девятых "Солдат", у них - новые радости и испытания.
На третьем фронте пленных не берут, а боевые действия все чаще принимают размах широкомасштабной операции. У соперников - наполеоновские планы и давнишние счеты друг к другу. Кандидат в депутаты Виктор Романович Колобков идет в большую политику, а обитателям воинской части приходится следовать за ним.
Хорошая новость: в часть приходят новобранцы. Вот как выглядит словесный портрет каждого из них: Грачёв Андрей: крепкий парень, боксёр, одарен обострённым чувством справедливости. По повадкам - явно будущий сержант.
1-20 - море тв
Качество видео: WEB-DL
Формат: ts
Видео: MPEG4 Video (H264) 704x534 (91:69) 25fps [V: h264 high L4.1, yuv420p, 704x534]
Аудио: AAC 44100Hz stereo 125kbps [A: aac lc, 44100 Hz, stereo, 125 kb/s]
MediaInfo:
Общее
Идентификатор : 1 (0x1)
Полное имя : E:\Торренты (Temp)\Солдаты\Солдаты. 1-17 сезоны\Солдаты. 9 сезон\Солдаты. 9 сезон 1 серия.ts
Формат : MPEG-TS
Размер файла : 500 Мбайт
Продолжительность : 43 м. 30 с.
Режим общего битрейта : Переменный
Общий поток : 1 606 Кбит/сек
Видео
Идентификатор : 256 (0x100)
Идентификатор меню : 1 (0x1)
Формат : AVC
Формат/Информация : Advanced Video Codec
Профиль формата : [email protected]
Настройки формата : CABAC / 5 Ref Frames
Параметр CABAC формата : Да
Параметр RefFrames формата : 5 кадров
Идентификатор кодека : 27
Продолжительность : 43 м. 30 с.
Номинальный битрейт : 1 400 Кбит/сек
Ширина : 704 пикселя
Высота : 534 пикселя
Соотношение сторон : 4:3
Режим частоты кадров : Переменный
Цветовое пространство : YUV
Субдискретизация насыщенности : 4:2:0
Битовая глубина : 8 бит
Тип развёртки : Прогрессивная
Библиотека кодирования : x264 core 148
Настройки программы : cabac=1 / ref=5 / deblock=1:0:0 / analyse=0x3:0x113 / me=umh / subme=8 / psy=1 / psy_rd=1.00:0.00 / mixed_ref=1 / me_range=16 / chroma_me=1 / trellis=1 / 8x8dct=1 / cqm=0 / deadzone=21,11 / fast_pskip=1 / chroma_qp_offset=-2 / threads=1 / lookahead_threads=1 / sliced_threads=0 / nr=0 / decimate=1 / interlaced=0 / bluray_compat=0 / constrained_intra=0 / bframes=3 / b_pyramid=2 / b_adapt=2 / b_bias=0 / direct=3 / weightb=1 / open_gop=0 / weightp=2 / keyint=250 / keyint_min=25 / scenecut=0 / intra_refresh=0 / rc_lookahead=50 / rc=abr / mbtree=1 / bitrate=1400 / ratetol=1.0 / qcomp=0.60 / qpmin=0 / qpmax=69 / qpstep=4 / ip_ratio=1.40 / aq=1:1.00
Аудио
Идентификатор : 257 (0x101)
Идентификатор меню : 1 (0x1)
Формат : AAC LC
Формат/Информация : Advanced Audio Codec Low Complexity
Версия формата : Version 4
Режим смешивания : ADTS
Идентификатор кодека : 15-2
Продолжительность : 43 м. 30 с.
Вид битрейта : Переменный
Каналы : 2 канала
Channel layout : L R
Частота : 44,1 КГц
Частота кадров : 43,066 кадра/сек (1024 SPF)
Метод сжатия : С потерями
Задержка видео : -80 мс.
Скриншоты:
Сезон 10:
Год выпуска: 2006
Количество серий: 20
Продолжительность: ~00:43:00 серия

Описание: Воинская часть живет предстоящими выборами. Кандидат в депутаты Колобков стремится к победе. Он, кажется, рассматривает очередную схватку со своим главным конкурентом Медведевым как последнюю возможность поквитаться за прошлые неудачи. Предвыборный штаб Колобкова действует цинично и бескомпромисно, в ход идут даже противозаконные методы. Медведев не пасует, его политтехнолог готов предложить контраргументы. Но даже тогда, когда один из соперников потирает руки в предвкушении успеха, становится понятно, что победителя в решающем сражении сможет определить только «фотофиниш»...
1-20 - море тв
Качество видео: WEB-DL
Формат: ts
Видео: MPEG4 Video (H264) 704x534 (91:69) 25fps [V: h264 high L4.1, yuv420p, 704x534]
Аудио: AAC 44100Hz stereo 129kbps [A: aac lc, 44100 Hz, stereo, 129 kb/s]
MediaInfo:
Общее
Идентификатор : 1 (0x1)
Полное имя : E:\Торренты (Temp)\Солдаты\Солдаты. 1-17 сезоны\Солдаты. 10 сезон\Солдаты. 10 сезон 1 серия.ts
Формат : MPEG-TS
Размер файла : 501 Мбайт
Продолжительность : 43 м. 32 с.
Режим общего битрейта : Переменный
Общий поток : 1 610 Кбит/сек
Видео
Идентификатор : 256 (0x100)
Идентификатор меню : 1 (0x1)
Формат : AVC
Формат/Информация : Advanced Video Codec
Профиль формата : [email protected]
Настройки формата : CABAC / 5 Ref Frames
Параметр CABAC формата : Да
Параметр RefFrames формата : 5 кадров
Идентификатор кодека : 27
Продолжительность : 43 м. 32 с.
Номинальный битрейт : 1 400 Кбит/сек
Ширина : 704 пикселя
Высота : 534 пикселя
Соотношение сторон : 4:3
Режим частоты кадров : Переменный
Цветовое пространство : YUV
Субдискретизация насыщенности : 4:2:0
Битовая глубина : 8 бит
Тип развёртки : Прогрессивная
Библиотека кодирования : x264 core 148
Настройки программы : cabac=1 / ref=5 / deblock=1:0:0 / analyse=0x3:0x113 / me=umh / subme=8 / psy=1 / psy_rd=1.00:0.00 / mixed_ref=1 / me_range=16 / chroma_me=1 / trellis=1 / 8x8dct=1 / cqm=0 / deadzone=21,11 / fast_pskip=1 / chroma_qp_offset=-2 / threads=1 / lookahead_threads=1 / sliced_threads=0 / nr=0 / decimate=1 / interlaced=0 / bluray_compat=0 / constrained_intra=0 / bframes=3 / b_pyramid=2 / b_adapt=2 / b_bias=0 / direct=3 / weightb=1 / open_gop=0 / weightp=2 / keyint=250 / keyint_min=25 / scenecut=0 / intra_refresh=0 / rc_lookahead=50 / rc=abr / mbtree=1 / bitrate=1400 / ratetol=1.0 / qcomp=0.60 / qpmin=0 / qpmax=69 / qpstep=4 / ip_ratio=1.40 / aq=1:1.00
Аудио
Идентификатор : 257 (0x101)
Идентификатор меню : 1 (0x1)
Формат : AAC LC
Формат/Информация : Advanced Audio Codec Low Complexity
Версия формата : Version 4
Режим смешивания : ADTS
Идентификатор кодека : 15-2
Продолжительность : 43 м. 32 с.
Вид битрейта : Переменный
Каналы : 2 канала
Channel layout : L R
Частота : 44,1 КГц
Частота кадров : 43,066 кадра/сек (1024 SPF)
Метод сжатия : С потерями
Задержка видео : -80 мс.
Скриншоты:
Сезон 11:
Год выпуска: 2007
Количество серий: 12
Продолжительность: ~00:43:00 серия

Описание: Коварный Виктор Романыч Колобков покинул вооруженные силы и расположение воинской части, но авторы сценария одиннадцатого сезона «Солдат», очевидно, решили, что герои сериала не должны особенно расслабляться.
По души обитателей воинской части они ввели в сюжет майора особого отдела Шкалина (Анатолий Кот), в котором на первый взгляд сложно рассмотреть отъявленного негодяя. Шкалин познается в сравнении. С течением сюжета особист приобретает от солдатских острословов негласное прозвище Шакалин. Он собирает своими методами толстую папку ценной информации о каждом из солдат и офицеров. Майор точно знает, как именно надо ее использовать.
Шкалин хорошо умеет организовывать сослуживцам неприятности, а вот для событий, происходящих в семье старшего прапорщика Шматко (Алексей Маклаков), подходит более драматическое определение – беда. Его жена Маша (Ольга Юрасова) то и дело исчезает без объяснения причин и мучается от жуткой депрессии. Шматко пытается разгадать этот ребус. На всякий случай он становится еще заботливее и по инерции теряет аппетит и деловую хватку. Сослуживцы не могут понять, что происходит с геройским прапорщиком, пока однажды Шматко не заявляет, что ему нужен отпуск. Он должен отправиться на поиски жены, которая пропала окончательно, оставив на прощание очень странную записку...
1-12 - море тв
Качество видео: WEB-DL
Формат: ts
Видео: MPEG4 Video (H264) 704x534 (91:69) 25fps [V: h264 high L4.1, yuv420p, 704x534]
Аудио: AAC 44100Hz stereo 145kbps [A: aac lc, 44100 Hz, stereo, 145 kb/s]
MediaInfo:
Общее
Идентификатор : 1 (0x1)
Полное имя : E:\Торренты (Temp)\Солдаты\Солдаты. 1-17 сезоны\Солдаты. 11 сезон\Солдаты. 11 сезон 1 серия.ts
Формат : MPEG-TS
Размер файла : 501 Мбайт
Продолжительность : 43 м. 32 с.
Режим общего битрейта : Переменный
Общий поток : 1 610 Кбит/сек
Видео
Идентификатор : 256 (0x100)
Идентификатор меню : 1 (0x1)
Формат : AVC
Формат/Информация : Advanced Video Codec
Профиль формата : [email protected]
Настройки формата : CABAC / 5 Ref Frames
Параметр CABAC формата : Да
Параметр RefFrames формата : 5 кадров
Идентификатор кодека : 27
Продолжительность : 43 м. 32 с.
Номинальный битрейт : 1 400 Кбит/сек
Ширина : 704 пикселя
Высота : 534 пикселя
Соотношение сторон : 4:3
Режим частоты кадров : Переменный
Цветовое пространство : YUV
Субдискретизация насыщенности : 4:2:0
Битовая глубина : 8 бит
Тип развёртки : Прогрессивная
Библиотека кодирования : x264 core 148
Настройки программы : cabac=1 / ref=5 / deblock=1:0:0 / analyse=0x3:0x113 / me=hex / subme=8 / psy=1 / psy_rd=1.00:0.00 / mixed_ref=1 / me_range=16 / chroma_me=1 / trellis=2 / 8x8dct=1 / cqm=0 / deadzone=21,11 / fast_pskip=1 / chroma_qp_offset=-2 / threads=1 / lookahead_threads=1 / sliced_threads=0 / nr=0 / decimate=1 / interlaced=0 / bluray_compat=0 / constrained_intra=0 / bframes=3 / b_pyramid=2 / b_adapt=1 / b_bias=0 / direct=3 / weightb=1 / open_gop=0 / weightp=2 / keyint=250 / keyint_min=25 / scenecut=0 / intra_refresh=0 / rc_lookahead=50 / rc=abr / mbtree=1 / bitrate=1400 / ratetol=1.0 / qcomp=0.60 / qpmin=0 / qpmax=69 / qpstep=4 / ip_ratio=1.40 / aq=1:1.00
Аудио
Идентификатор : 257 (0x101)
Идентификатор меню : 1 (0x1)
Формат : AAC LC
Формат/Информация : Advanced Audio Codec Low Complexity
Версия формата : Version 4
Режим смешивания : ADTS
Идентификатор кодека : 15-2
Продолжительность : 43 м. 32 с.
Вид битрейта : Переменный
Каналы : 2 канала
Channel layout : L R
Частота : 44,1 КГц
Частота кадров : 43,066 кадра/сек (1024 SPF)
Метод сжатия : С потерями
Задержка видео : -80 мс.
Скриншоты:
Сезон 12:
Год выпуска: 2007
Количество серий: 50
Продолжительность: ~00:43:00 серия

Описание: Весна – время любви и начала новой жизни. И в «Новых «Солдатах» личная жизнь героев сериала претерпевает большие изменения. Прапорщик Шматко (Алексей Маклаков), уезжавший в Одессу на поиски своей внезапно пропавшей жены Маши, вернулся в родную часть с новой семьёй — Анной (Анна Большова) и её двумя детьми — Петей (Паша Серёгин) и Сашей (Катя Аманова). Даже у Анжелы Олеговны (Татьяна Кузнецова) появился поклонник - в неё влюбился дядя Шматко — Евгений Петрович (Владимир Толоконников). Такая огромная семья неизбежно столкнулась со множеством проблем — квартирных, финансовых, психологических. Но, как оказалось, все проблемы можно решить, если в семье царят дружба, любовь и взаимопонимание.
1-50 - море тв
Качество видео: WEB-DL
Формат: ts
Видео: MPEG4 Video (H264) 704x528 25fps [V: h264 high L4.1, yuv420p, 704x528]
Аудио: AAC 44100Hz stereo 147kbps [A: aac lc, 44100 Hz, stereo, 147 kb/s]
MediaInfo:
Общее
Идентификатор : 1 (0x1)
Полное имя : E:\Торренты (Temp)\Солдаты\Солдаты. 1-17 сезоны\Солдаты. 12 сезон\Солдаты. 12 сезон 40 серия.ts
Формат : MPEG-TS
Размер файла : 501 Мбайт
Продолжительность : 43 м. 40 с.
Режим общего битрейта : Переменный
Общий поток : 1 605 Кбит/сек
Видео
Идентификатор : 256 (0x100)
Идентификатор меню : 1 (0x1)
Формат : AVC
Формат/Информация : Advanced Video Codec
Профиль формата : [email protected]
Настройки формата : CABAC / 5 Ref Frames
Параметр CABAC формата : Да
Параметр RefFrames формата : 5 кадров
Идентификатор кодека : 27
Продолжительность : 43 м. 40 с.
Номинальный битрейт : 1 400 Кбит/сек
Ширина : 704 пикселя
Высота : 528 пикселей
Соотношение сторон : 4:3
Режим частоты кадров : Переменный
Цветовое пространство : YUV
Субдискретизация насыщенности : 4:2:0
Битовая глубина : 8 бит
Тип развёртки : Прогрессивная
Библиотека кодирования : x264 core 148
Настройки программы : cabac=1 / ref=5 / deblock=1:0:0 / analyse=0x3:0x113 / me=hex / subme=8 / psy=1 / psy_rd=1.00:0.00 / mixed_ref=1 / me_range=16 / chroma_me=1 / trellis=2 / 8x8dct=1 / cqm=0 / deadzone=21,11 / fast_pskip=1 / chroma_qp_offset=-2 / threads=1 / lookahead_threads=1 / sliced_threads=0 / nr=0 / decimate=1 / interlaced=0 / bluray_compat=0 / constrained_intra=0 / bframes=3 / b_pyramid=2 / b_adapt=1 / b_bias=0 / direct=3 / weightb=1 / open_gop=0 / weightp=2 / keyint=250 / keyint_min=25 / scenecut=0 / intra_refresh=0 / rc_lookahead=50 / rc=abr / mbtree=1 / bitrate=1400 / ratetol=1.0 / qcomp=0.60 / qpmin=0 / qpmax=69 / qpstep=4 / ip_ratio=1.40 / aq=1:1.00
Аудио
Идентификатор : 257 (0x101)
Идентификатор меню : 1 (0x1)
Формат : AAC LC
Формат/Информация : Advanced Audio Codec Low Complexity
Версия формата : Version 4
Режим смешивания : ADTS
Идентификатор кодека : 15-2
Продолжительность : 43 м. 40 с.
Вид битрейта : Переменный
Каналы : 2 канала
Channel layout : L R
Частота : 44,1 КГц
Частота кадров : 43,066 кадра/сек (1024 SPF)
Метод сжатия : С потерями
Задержка видео : -80 мс.
Скриншоты:
Сезон 13:
Год выпуска: 2007
Количество серий: 64
Продолжительность: ~00:43:00 серия

Описание: В новом сезоне командир части подполковник Зубов будет по-прежнему успешно руководить вверенной ему частью. Он и не подозревает, что впереди - череда удивительных кадровых перестановок.
Майор Шкалин встретит свою настоящую любовь, которая во многом изменит его жизнь и характер. Ставший холостяком подполковник Староконь вновь пустится в амурные приключения. К сожалению, в его служебных делах всё будет далеко не безоблачно. Он попадёт в сети нового «злодея» и лишится должности, а может, и не лишится это как посмотреть…
А вот у капитана Приходько начнется воистину веселая жизнь. Он, в отличие от подполковника, получит новую должность, переживёт бурный роман с чепочницей Зотовой и даже, в конце концов, совершит подвиг.
Старший лейтенант Куренков станет курсантом-миротворцем и пройдёт тяжёлый путь подготовки под руководством майора Мафонина. А среди курсантов- миротворцев мы увидим кое-кого из наших старых знакомых бывших солдат. Приняв участие в выполнении нескольких миротворческих миссий, Куренков вернётся в родную часть, в родную вторую роту.
Прапорщику Соколову предстоит раскрыть некие семейные тайны. А их с Варей любовь подвергнется большим испытаниям на прочность и верность.
Прапорщик Топалова получит орден за свои прежние боевые заслуги, станет старшим прапорщиком и даже попробует наладить свою личную жизнь, а вот насколько это у нее получится большой вопрос.
Старший прапорщик Данилюк переживёт не один «залёт» и его дальнейшая служба в армии будет находиться под угрозой…
Прапорщик Ковальский затоскует по морю и укатит на Дальний Восток вместе со своей женой Тамарой Славской. А в части появятся новые герои медсестра Даша Кобякова, молодые лейтенанты Макеев и Кулешов, а также мы познакомимся майором Кайгородовым, до сих пор пребывавшим в тени нашего повествования.
Мы попрощаемся с полюбившимся всем дедами Котом, Максименко, Цлавом, Кичибековым и Скрипкой. После дембеля Кот таки женится на своей Любе, а прапорщик Соколов устроит им свадебный сюрприз.
А в часть придёт новое молодое пополнение, которому ещё предстоит изучить нелёгкую воинскую науку. У каждого из них своя судьба, свой характер. Каждый по-своему будет привыкать к нелегким солдатским будням, и, конечно, все они будут попадать в курьёзные ситуации, набивать шишки и учиться быть Солдатами.
1-64 - море тв
Качество видео: WEB-DL
Формат: ts
Видео: MPEG4 Video (H264) 704x528 25fps [V: h264 high L4.1, yuv420p, 704x528]
Аудио: AAC 44100Hz stereo 152kbps [A: aac lc, 44100 Hz, stereo, 152 kb/s]
MediaInfo:
Общее
Идентификатор : 1 (0x1)
Полное имя : E:\Торренты (Temp)\Солдаты\Солдаты. 1-17 сезоны\Солдаты. 13 сезон\Солдаты. 13 сезон 64 серия.ts
Формат : MPEG-TS
Размер файла : 500 Мбайт
Продолжительность : 43 м. 29 с.
Режим общего битрейта : Переменный
Общий поток : 1 606 Кбит/сек
Видео
Идентификатор : 256 (0x100)
Идентификатор меню : 1 (0x1)
Формат : AVC
Формат/Информация : Advanced Video Codec
Профиль формата : [email protected]
Настройки формата : CABAC / 5 Ref Frames
Параметр CABAC формата : Да
Параметр RefFrames формата : 5 кадров
Идентификатор кодека : 27
Продолжительность : 43 м. 29 с.
Номинальный битрейт : 1 400 Кбит/сек
Ширина : 704 пикселя
Высота : 528 пикселей
Соотношение сторон : 4:3
Режим частоты кадров : Переменный
Цветовое пространство : YUV
Субдискретизация насыщенности : 4:2:0
Битовая глубина : 8 бит
Тип развёртки : Прогрессивная
Библиотека кодирования : x264 core 148
Настройки программы : cabac=1 / ref=5 / deblock=1:0:0 / analyse=0x3:0x113 / me=hex / subme=8 / psy=1 / psy_rd=1.00:0.00 / mixed_ref=1 / me_range=16 / chroma_me=1 / trellis=2 / 8x8dct=1 / cqm=0 / deadzone=21,11 / fast_pskip=1 / chroma_qp_offset=-2 / threads=1 / lookahead_threads=1 / sliced_threads=0 / nr=0 / decimate=1 / interlaced=0 / bluray_compat=0 / constrained_intra=0 / bframes=3 / b_pyramid=2 / b_adapt=1 / b_bias=0 / direct=3 / weightb=1 / open_gop=0 / weightp=2 / keyint=250 / keyint_min=25 / scenecut=0 / intra_refresh=0 / rc_lookahead=50 / rc=abr / mbtree=1 / bitrate=1400 / ratetol=1.0 / qcomp=0.60 / qpmin=0 / qpmax=69 / qpstep=4 / ip_ratio=1.40 / aq=1:1.00
Аудио
Идентификатор : 257 (0x101)
Идентификатор меню : 1 (0x1)
Формат : AAC LC
Формат/Информация : Advanced Audio Codec Low Complexity
Версия формата : Version 4
Режим смешивания : ADTS
Идентификатор кодека : 15-2
Продолжительность : 43 м. 29 с.
Вид битрейта : Переменный
Каналы : 2 канала
Channel layout : L R
Частота : 44,1 КГц
Частота кадров : 43,066 кадра/сек (1024 SPF)
Метод сжатия : С потерями
Задержка видео : -80 мс.
Скриншоты:
Сезон 14:
Год выпуска: 2008
Количество серий: 64
Продолжительность: ~00:43:00 серия

Описание: В новом сезоне нас ждут долгожданные встречи с полюбившимися героями и удивительные истории из жизни части. На экранах появятся новые персонажи: раскроется образ Ольги, появлявшейся в эпизодических ролях в тринадцатом сезоне, к службе приступит новый сержант Кобрин, и новый библиотекарь. К сожалению, по сценарию после окончания четырнадцатого сезона проект покинут сержант Суслопаров и майор Кайгородов.
Навадский, Паршин и Погосян продолжат осваивать нелёгкую воинскую науку. «Деды» — по традиции — будут стараться всячески облегчить свои солдатские будни. А ещё — во второй роте появится новый сержант, отличник боевой и политической подготовки. И появление этого сержанта заставит «дедов» определиться в своём отношении к «дедовщине», как неизбежному атрибуту армейской жизни.
Бывший командир части, а ныне — начальник штаба дивизии — подполковник Зубов, не оставит без внимания свою родную часть. Его дружба с подполковником Староконём не прервётся, а станет ещё крепче. Подполковник Староконь окажется в сложной ситуации — ему предстоит пережить романтическое увлечение, которое доставит ему немало нелёгких минут.
В жизни И. О. командира части, подполковника Шкалина произойдёт ещё один кадровый поворот. Его семейная жизнь с Еленой и Машенькой ничем не омрачена, кроме финансовых проблем.
1-64 - море тв
Качество видео: WEB-DL
Формат: ts
Видео: MPEG4 Video (H264) 704x528 25fps [V: h264 high L4.1, yuv420p, 704x528]
Аудио: AAC 44100Hz stereo 151kbps [A: aac lc, 44100 Hz, stereo, 151 kb/s]
MediaInfo:
Общее
Идентификатор : 1 (0x1)
Полное имя : E:\Торренты (Temp)\Солдаты\Солдаты. 1-17 сезоны\Солдаты. 14 сезон\Солдаты. 14 сезон 64 серия.ts
Формат : MPEG-TS
Размер файла : 500 Мбайт
Продолжительность : 43 м. 29 с.
Режим общего битрейта : Переменный
Общий поток : 1 608 Кбит/сек
Видео
Идентификатор : 256 (0x100)
Идентификатор меню : 1 (0x1)
Формат : AVC
Формат/Информация : Advanced Video Codec
Профиль формата : [email protected]
Настройки формата : CABAC / 5 Ref Frames
Параметр CABAC формата : Да
Параметр RefFrames формата : 5 кадров
Идентификатор кодека : 27
Продолжительность : 43 м. 30 с.
Номинальный битрейт : 1 400 Кбит/сек
Ширина : 704 пикселя
Высота : 528 пикселей
Соотношение сторон : 4:3
Режим частоты кадров : Переменный
Цветовое пространство : YUV
Субдискретизация насыщенности : 4:2:0
Битовая глубина : 8 бит
Тип развёртки : Прогрессивная
Библиотека кодирования : x264 core 148
Настройки программы : cabac=1 / ref=5 / deblock=1:0:0 / analyse=0x3:0x113 / me=hex / subme=8 / psy=1 / psy_rd=1.00:0.00 / mixed_ref=1 / me_range=16 / chroma_me=1 / trellis=2 / 8x8dct=1 / cqm=0 / deadzone=21,11 / fast_pskip=1 / chroma_qp_offset=-2 / threads=1 / lookahead_threads=1 / sliced_threads=0 / nr=0 / decimate=1 / interlaced=0 / bluray_compat=0 / constrained_intra=0 / bframes=3 / b_pyramid=2 / b_adapt=1 / b_bias=0 / direct=3 / weightb=1 / open_gop=0 / weightp=2 / keyint=250 / keyint_min=25 / scenecut=0 / intra_refresh=0 / rc_lookahead=50 / rc=abr / mbtree=1 / bitrate=1400 / ratetol=1.0 / qcomp=0.60 / qpmin=0 / qpmax=69 / qpstep=4 / ip_ratio=1.40 / aq=1:1.00
Аудио
Идентификатор : 257 (0x101)
Идентификатор меню : 1 (0x1)
Формат : AAC LC
Формат/Информация : Advanced Audio Codec Low Complexity
Версия формата : Version 4
Режим смешивания : ADTS
Идентификатор кодека : 15-2
Продолжительность : 43 м. 29 с.
Вид битрейта : Переменный
Каналы : 2 канала
Channel layout : L R
Частота : 44,1 КГц
Частота кадров : 43,066 кадра/сек (1024 SPF)
Метод сжатия : С потерями
Задержка видео : -80 мс.
Скриншоты:
Сезон 15:
Год выпуска: 2008
Количество серий: 83
Продолжительность: ~00:47:00 серия

Описание: В новом, пятнадцатом по счету сезоне телесериала «Солдаты» зрители вновь встретятся с уже полюбившимися героями.
Главным событием станет возвращение в сериал прапорщика Шматко. Так уж случится, что прежде чем вернуться в родные пенаты, герою придется преодолеть массу трудностей, включая встречу с бандитами. Тем не менее, Староконь примет его на службу, но вот кем... Теплые места давно заняты старыми друзьями Шматко — Данилюком и Топаловой.
Подполковник Староконь по-прежнему командует частью. А вот у его друга подполковника Шкалина назревают большие неприятности, которые грозят ему самыми серьезными последствиями.
Появится и новый герой — молодой, энергичный и очень удачливый заместитель по тылу майор Добродей, который придет на смену проворовавшемуся майору Кайгородову. Повышенный интерес к майору Добродею немедленно проявят почти все немногочисленные женщины части.
У Цлава откроются кулинарные способности, что позволит ему начать собственный бизнес. Но и из чепка Цлав уходить не собирается — всюду успевает.
Отношения Топаловой и Цыплакова также получат развитие. На каникулы к Жанне приедет сын, и Цыплакову придется наводить мосты взаимопонимания с ребенком, который вступил в довольно непростой возраст. Мальчик станет постоянным гостем в части, где с ним будет происходить масса забавных случаев, которые так или иначе станут влиять на отношения Цыплакова и Топаловой.
Ну и, наконец, наши деды становятся дембелями. Наступает пора попрощаться со старыми героями — Суслопаровым, Тонышевым, Покрошинским, Бутоновым и Ярошенко, и встречать новый яркий призыв. А вот какими дедушками станут вчерашние духи Погосян, Навадский и Паршин, покажут дальнейшие события сериала.
1-83 - море тв
Качество видео: WEB-DL
Формат: ts
Видео: MPEG4 Video (H264) 704x528 25fps [V: h264 high L4.1, yuv420p, 704x528]
Аудио: AAC 44100Hz stereo 149kbps [A: aac lc, 44100 Hz, stereo, 149 kb/s]
MediaInfo:
Общее
Идентификатор : 1 (0x1)
Полное имя : E:\Торренты (Temp)\Солдаты\Солдаты. 1-17 сезоны\Солдаты. 15 сезон\Солдаты. 15 сезон 83 серия.ts
Формат : MPEG-TS
Размер файла : 550 Мбайт
Продолжительность : 48 м. 4 с.
Режим общего битрейта : Переменный
Общий поток : 1 600 Кбит/сек
Видео
Идентификатор : 256 (0x100)
Идентификатор меню : 1 (0x1)
Формат : AVC
Формат/Информация : Advanced Video Codec
Профиль формата : [email protected]
Настройки формата : CABAC / 5 Ref Frames
Параметр CABAC формата : Да
Параметр RefFrames формата : 5 кадров
Идентификатор кодека : 27
Продолжительность : 48 м. 5 с.
Номинальный битрейт : 1 400 Кбит/сек
Ширина : 704 пикселя
Высота : 528 пикселей
Соотношение сторон : 4:3
Режим частоты кадров : Переменный
Цветовое пространство : YUV
Субдискретизация насыщенности : 4:2:0
Битовая глубина : 8 бит
Тип развёртки : Прогрессивная
Библиотека кодирования : x264 core 148
Настройки программы : cabac=1 / ref=5 / deblock=1:0:0 / analyse=0x3:0x113 / me=hex / subme=8 / psy=1 / psy_rd=1.00:0.00 / mixed_ref=1 / me_range=16 / chroma_me=1 / trellis=2 / 8x8dct=1 / cqm=0 / deadzone=21,11 / fast_pskip=1 / chroma_qp_offset=-2 / threads=1 / lookahead_threads=1 / sliced_threads=0 / nr=0 / decimate=1 / interlaced=0 / bluray_compat=0 / constrained_intra=0 / bframes=3 / b_pyramid=2 / b_adapt=1 / b_bias=0 / direct=3 / weightb=1 / open_gop=0 / weightp=2 / keyint=250 / keyint_min=25 / scenecut=0 / intra_refresh=0 / rc_lookahead=50 / rc=abr / mbtree=1 / bitrate=1400 / ratetol=1.0 / qcomp=0.60 / qpmin=0 / qpmax=69 / qpstep=4 / ip_ratio=1.40 / aq=1:1.00
Аудио
Идентификатор : 257 (0x101)
Идентификатор меню : 1 (0x1)
Формат : AAC LC
Формат/Информация : Advanced Audio Codec Low Complexity
Версия формата : Version 4
Режим смешивания : ADTS
Идентификатор кодека : 15-2
Продолжительность : 48 м. 4 с.
Вид битрейта : Переменный
Каналы : 2 канала
Channel layout : L R
Частота : 44,1 КГц
Частота кадров : 43,066 кадра/сек (1024 SPF)
Метод сжатия : С потерями
Задержка видео : -80 мс.
Скриншоты:
Сезон 16:
Год выпуска: 2009
Количество серий: 90
Продолжительность: ~00:47:00 серия

Описание: Главным грустным событием сериала «Солдаты. Дембель неизбежен» станет, конечно, дембель, обычно предшествующий появлению новобранцев. Придётся попрощаться со старыми полюбившимися персонажами. Но на смену им придут новые, не менее интересные герои.
1-90 - море тв
Качество видео: WEB-DL
Формат: ts
Видео: MPEG4 Video (H264) 704x528 (95:71) 25fps [V: h264 high L4.1, yuv420p, 704x528]
Аудио: AAC 44100Hz stereo 151kbps [A: aac lc, 44100 Hz, stereo, 151 kb/s]
MediaInfo:
Общее
Идентификатор : 1 (0x1)
Полное имя : E:\Торренты (Temp)\Солдаты\Солдаты. 1-17 сезоны\Солдаты. 16 сезон\Солдаты. 16 сезон 1 серия.ts
Формат : MPEG-TS
Размер файла : 48,5 Гбайт
Продолжительность : 47 м. 59 с.
Режим общего битрейта : Переменный
Общий поток : 145 Мбит/сек
Видео
Идентификатор : 256 (0x100)
Идентификатор меню : 1 (0x1)
Формат : AVC
Формат/Информация : Advanced Video Codec
Профиль формата : [email protected]
Настройки формата : CABAC / 5 Ref Frames
Параметр CABAC формата : Да
Параметр RefFrames формата : 5 кадров
Идентификатор кодека : 27
Продолжительность : 48 м. 0 с.
Номинальный битрейт : 1 400 Кбит/сек
Ширина : 704 пикселя
Высота : 528 пикселей
Соотношение сторон : 4:3
Режим частоты кадров : Переменный
Цветовое пространство : YUV
Субдискретизация насыщенности : 4:2:0
Битовая глубина : 8 бит
Тип развёртки : Прогрессивная
Библиотека кодирования : x264 core 148
Настройки программы : cabac=1 / ref=5 / deblock=1:0:0 / analyse=0x3:0x113 / me=hex / subme=8 / psy=1 / psy_rd=1.00:0.00 / mixed_ref=1 / me_range=16 / chroma_me=1 / trellis=2 / 8x8dct=1 / cqm=0 / deadzone=21,11 / fast_pskip=1 / chroma_qp_offset=-2 / threads=1 / lookahead_threads=1 / sliced_threads=0 / nr=0 / decimate=1 / interlaced=0 / bluray_compat=0 / constrained_intra=0 / bframes=3 / b_pyramid=2 / b_adapt=1 / b_bias=0 / direct=3 / weightb=1 / open_gop=0 / weightp=2 / keyint=250 / keyint_min=25 / scenecut=0 / intra_refresh=0 / rc_lookahead=50 / rc=abr / mbtree=1 / bitrate=1400 / ratetol=1.0 / qcomp=0.60 / qpmin=0 / qpmax=69 / qpstep=4 / ip_ratio=1.40 / aq=1:1.00
Аудио
Идентификатор : 257 (0x101)
Идентификатор меню : 1 (0x1)
Формат : AAC LC
Формат/Информация : Advanced Audio Codec Low Complexity
Версия формата : Version 4
Режим смешивания : ADTS
Идентификатор кодека : 15-2
Продолжительность : 47 м. 59 с.
Вид битрейта : Переменный
Каналы : 2 канала
Channel layout : L R
Частота : 44,1 КГц
Частота кадров : 43,066 кадра/сек (1024 SPF)
Метод сжатия : С потерями
Задержка видео : -80 мс.
Скриншоты:
Сезон 17:
Год выпуска: 2013
Количество серий: 20
Продолжительность: ~00:47:00 серия

Описание: Воинская часть полковника Староконя находится под угрозой расформирования. Его давние недруги, полковник Японцев и отставник Колобков, хотят построить на её месте элитный посёлок. Но для осуществления их коварных планов не хватает самой малости: надо доказать начальству, что Староконь - плохой командир, а его подчинённые не могут справиться с выполнением самых простых приказов...
1-20 - море тв
Качество видео: WEB-DL
Формат: ts
Видео: MPEG4 Video (H264) 1874x1080 (59:34) 24fps [V: h264 high L4.1, yuv420p, 1874x1080]
Аудио: AAC 44100Hz stereo 141kbps [A: aac lc, 44100 Hz, stereo, 141 kb/s]
MediaInfo:
Общее
Идентификатор : 1 (0x1)
Полное имя : E:\Торренты (Temp)\Солдаты\Солдаты. 1-17 сезоны\Солдаты. 17 сезон\Солдаты. 17 сезон 1 серия.ts
Формат : MPEG-TS
Размер файла : 1,86 Гбайт
Продолжительность : 50 м. 15 с.
Режим общего битрейта : Переменный
Общий поток : 5 302 Кбит/сек
Видео
Идентификатор : 256 (0x100)
Идентификатор меню : 1 (0x1)
Формат : AVC
Формат/Информация : Advanced Video Codec
Профиль формата : [email protected]
Настройки формата : CABAC / 5 Ref Frames
Параметр CABAC формата : Да
Параметр RefFrames формата : 5 кадров
Идентификатор кодека : 27
Продолжительность : 50 м. 15 с.
Номинальный битрейт : 5 000 Кбит/сек
Ширина : 1 874 пикселя
Высота : 1 080 пикселей
Соотношение сторон : 1,735
Режим частоты кадров : Переменный
Цветовое пространство : YUV
Субдискретизация насыщенности : 4:2:0
Битовая глубина : 8 бит
Тип развёртки : Прогрессивная
Библиотека кодирования : x264 core 148
Настройки программы : cabac=1 / ref=5 / deblock=1:0:0 / analyse=0x3:0x113 / me=hex / subme=8 / psy=1 / psy_rd=1.00:0.00 / mixed_ref=1 / me_range=16 / chroma_me=1 / trellis=2 / 8x8dct=1 / cqm=0 / deadzone=21,11 / fast_pskip=1 / chroma_qp_offset=-2 / threads=34 / lookahead_threads=5 / sliced_threads=0 / nr=0 / decimate=1 / interlaced=0 / bluray_compat=0 / constrained_intra=0 / bframes=3 / b_pyramid=2 / b_adapt=1 / b_bias=0 / direct=3 / weightb=1 / open_gop=0 / weightp=2 / keyint=250 / keyint_min=24 / scenecut=0 / intra_refresh=0 / rc_lookahead=50 / rc=abr / mbtree=1 / bitrate=5000 / ratetol=1.0 / qcomp=0.60 / qpmin=0 / qpmax=69 / qpstep=4 / ip_ratio=1.40 / aq=1:1.00
Аудио
Идентификатор : 257 (0x101)
Идентификатор меню : 1 (0x1)
Формат : AAC LC
Формат/Информация : Advanced Audio Codec Low Complexity
Версия формата : Version 4
Режим смешивания : ADTS
Идентификатор кодека : 15-2
Продолжительность : 50 м. 15 с.
Вид битрейта : Переменный
Каналы : 2 канала
Channel layout : L R
Частота : 44,1 КГц
Частота кадров : 43,066 кадра/сек (1024 SPF)
Метод сжатия : С потерями
Задержка видео : -83 мс.
Скриншоты:
Спин-офф:
Спин-офф (spin-off в переводе с англ. — «побочный продукт», «ответвление») — художественное произведение (книга, фильм, компьютерная или настольная игра, комикс), являющееся ответвлением по отношению к другому, уже существующему произведению и использующее его популярность, признание или коммерческий успех за счёт использования каких-либо элементов — персонажей, событий или тем — игравших в произведении-предшественнике второстепенную роль[1]. Иными словами, спин-офф уделяет особое внимание чему-то, что не было центральным в первичном произведении[2]. При выпуске спин-оффов предполагается, что они будут восприняты аудиторией, уже знакомой с персонажами и ситуационными аспектами, лучше, чем совершенно новые произведения[3].
Как правило, основным отличием спин-оффа от простого продолжения или предыстории того или иного художественного произведения является участие в качестве основных действующих лиц персонажей, являвшихся второстепенными или вовсе эпизодическими в исходном произведении. Важно отметить отличие спин-оффа от ремейка — новой интерпретации произведения лишь с иными акцентами, новой техникой или новыми условиями развития того же сюжета.
Солдаты. Дембельский альбом:
Год выпуска: 2008
Количество серий: 72
Продолжительность: ~00:50:00 серия

Описание: Один из основных творцов "дембельской солдатской книги" — знакомый многим зрителям по сериалу "Солдаты" подполковник Староконь. Именно он, статусный балагур, придаст "Дембельскому альбому" самое бесценное — авторский, рукотворный характер. Вместе со своим беспечным помощником сержантом Сидоровым он создаст неповторимую, яркую "шинельную" телекнигу с индивидуальными пометками о том, что есть:
— Наглядная эволюция солдата российской армии (с бесценными комментариями);
— Бурная жизнь офицерской общаги;
— Нелёгкая воинская наука;
— Настоящая армейская дружба;
— Толковый и бестолковый армейский словарь (включая анекдоты, байки, афоризмы, песни);
— Умение найти своего "любимого" командира.
"Дембельском альбоме" собраны лучшие воспоминания и впечатления об армии: Мастер на все руки - Соколов и романтический Медведев. Неторопливые и смешные Папазобло и Цлав. Вкусный шашлык Кичибекова и душистые пирожки буфетчицы Марины Зотовой и Эвелины. Пустослов Данилюк. Укротитель всех тещ - Шматко. Грозный полковник Колобков и шутливый мастер по воспитательной работе Староконь. Дипломированный ботаник Щур. Педантичный Кудашов и все другие герои армейской саги "Солдаты".
Все они прошли армейскую школу 13 сезонов подряд.
Начинается все с того, что командир части подполковник Староконь застает сержанта Сидорова за "оформлением" дембельского альбома. Что ждёт солдата? Староконь придумывает особое наказание - Сидорову придётся сделать дембельский альбом части.
Качество видео: SATRip
Видео: Xvid, 560x416, ~1044kbps
Аудио: MP3, 44100 Hz, 2 ch, 96kbp
MediaInfo:
Общее
Полное имя : E:\Торренты (Temp)\Солдаты\Спин-офф\Солдаты. Дембельский альбом\Солдаты. Дембельский альбом 01.avi
Формат : AVI
Формат/Информация : Audio Video Interleave
Размер файла : 400 Мбайт
Продолжительность : 50 м. 11 с.
Общий поток : 1 115 Кбит/сек
Программа кодирования : VirtualDubMod 1.5.10.2 (build 2542/release)
Библиотека кодирования : VirtualDubMod build 2542/release
Видео
Идентификатор : 0
Формат : MPEG-4 Visual
Профиль формата : Advanced [email protected]
Настройки формата : BVOP1
Параметр BVOP формата : 1
Параметр QPel формата : Нет
Параметр GMC формата : Без точки перехода
Параметр матрицы формата : Default (H.263)
Режим смешивания : Сжатый битовый поток
Идентификатор кодека : XVID
Идентификатор кодека/Подсказка : XviD
Продолжительность : 50 м. 11 с.
Битрейт : 1 009 Кбит/сек
Ширина : 560 пикселей
Высота : 416 пикселей
Соотношение сторон : 4:3
Частота кадров : 25,000 кадров/сек
Цветовое пространство : YUV
Субдискретизация насыщенности : 4:2:0
Битовая глубина : 8 бит
Тип развёртки : Прогрессивная
Метод сжатия : С потерями
Бит/(Пиксели*Кадры) : 0.173
Размер потока : 362 Мбайт (91%)
Библиотека кодирования : XviD 1.1.0 (UTC 2005-11-22)
Аудио
Идентификатор : 1
Формат : MPEG Audio
Версия формата : Version 1
Профиль формата : Layer 3
Настройки формата : Joint stereo
Идентификатор кодека : 55
Идентификатор кодека/Подсказка : MP3
Продолжительность : 50 м. 11 с.
Вид битрейта : Постоянный
Битрейт : 96,0 Кбит/сек
Каналы : 2 канала
Частота : 44,1 КГц
Метод сжатия : С потерями
Размер потока : 34,5 Мбайт (9%)
Выравнивание : Разделение по промежуткам
Продолжительность промежутка : 40 мс. (1,00 видеокадр)
Время предзагрузки промежутка : 500 мс.
Скриншоты:
Смальков. Двойной шантаж:
Смальков. Двойной шантаж
Год выпуска: 2008
Количество серий: 8
Жанр: Лирическая комедия
Продолжительность: 00:43:08
Режиссер: Влад Николаев
В ролях: Игнатий Акрачков, Мария Аронова, Амаду Мамадаков, Дмитрий Ермилов, Сергей Габриелян и др.

Описание: Что происходит с офицерами из сериала «Солдаты», когда они покидают часть и уходят «на гражданку»? . И вот — очередная история в формате «спин-офф» (то есть телефильм, развивающий линию одного из любимых героев сериала «Солдаты»).
На этот раз создатель 8-серийного фильма — Продюсерский центр ЛЕАН-М расскажет о буднях бывшего капитана, а ныне — сотрудника МЧС Смалькова (его играет актер Игнат Акрачков). Встретятся зрители и с его женой Эвелиной (Мария Аронова). «На гражданке» бывшая буфетчица быстро нашла применение своим талантам: Эвелина открыла кафе, став удачливой бизнесвумен. Безоблачную жизнь этой семьи нарушают козни таинственного недоброжелателя, который делает все, чтобы добавить супругам проблем...
Офицер Смальков возвращается! Теперь он работает в министерстве чрезвычайных ситуаций. И в его настоящей жизни таких ситуаций намечается множество.Его безумная любовь к Эвелине переросла не только в крепкую семью, но стала поводом появления на свет еще одной жизни. В гражданской жизни бывшая буфетчица быстро нашла применением собственным талантам: она стала успешной бизнесвумен, открыв собственное кафе. И такую, казалась бы, безоблачную жизнь, никто и ничто не в состоянии затмить! Кроме, постоянных коварных действий таинственного недоброжелателя, который так и норовит потревожить семейную гармонию!
Релиз: [email protected] , SwatKiev

SwatKiev 1 Серия
Качество: TVRip
Формат: AVI
Видео кодек: DivX
Аудио кодек: MP3
Видео: 640х480 DivX Codec 6.6.1 25 fps 1200 kbps avg 0.12 bit/pixel
Аудио: MPEG Layer 3 128.00 kbps avg 48 kHz
BigFan 2-8 Серии
Качество: SATRip
Формат: AVI
Видео кодек: XviD
Аудио кодек: MP3
Видео: 560x416 (1.35:1), 25 fps, XviD build 47 ~1161 kbps avg, 0.20 bit/pixel
Аудио: 48 kHz, MPEG Layer 3, 2 ch, ~128.00 kbps avg
MediaInfo:
1 Серия SwatKiev
Общее
Полное имя : E:\Торренты (Temp)\Солдаты\Спин-офф\Смальков. Двойной шантаж\Смальков. Двойной шантаж. 1 серия.avi
Формат : AVI
Формат/Информация : Audio Video Interleave
Размер файла : 417 Мбайт
Продолжительность : 43 м. 31 с.
Общий поток : 1 338 Кбит/сек
Библиотека кодирования : VirtualDub build 30009/release
Видео
Идентификатор : 0
Формат : MPEG-4 Visual
Настройки формата : BVOP1
Параметр BVOP формата : 1
Параметр QPel формата : Нет
Параметр GMC формата : Без точки перехода
Параметр матрицы формата : Default (H.263)
Режим смешивания : Сжатый битовый поток
Идентификатор кодека : DX50
Идентификатор кодека/Подсказка : DivX 5
Продолжительность : 43 м. 31 с.
Битрейт : 1 201 Кбит/сек
Номинальный битрейт : 4 854 Кбит/сек
Ширина : 640 пикселей
Высота : 480 пикселей
Соотношение сторон : 4:3
Частота кадров : 25,000 кадров/сек
Цветовое пространство : YUV
Субдискретизация насыщенности : 4:2:0
Битовая глубина : 8 бит
Тип развёртки : Прогрессивная
Метод сжатия : С потерями
Бит/(Пиксели*Кадры) : 0.156
Размер потока : 374 Мбайт (90%)
Библиотека кодирования : DivX 6.6.1.4
Аудио
Идентификатор : 1
Формат : MPEG Audio
Версия формата : Version 1
Профиль формата : Layer 3
Настройки формата : Joint stereo / MS Stereo
Идентификатор кодека : 55
Идентификатор кодека/Подсказка : MP3
Продолжительность : 43 м. 30 с.
Вид битрейта : Постоянный
Битрейт : 128 Кбит/сек
Каналы : 2 канала
Частота : 48,0 КГц
Метод сжатия : С потерями
Размер потока : 39,8 Мбайт (10%)
Выравнивание : Разделение по промежуткам
Продолжительность промежутка : 40 мс. (1,00 видеокадр)
Время предзагрузки промежутка : 500 мс.
Библиотека кодирования : LAME3.98.2
BigFan 2-8 серии
Общее
Полное имя : E:\Торренты (Temp)\Солдаты\Спин-офф\Смальков. Двойной шантаж\Смальков. Двойной шантаж. 2 серия.avi
Формат : AVI
Формат/Информация : Audio Video Interleave
Размер файла : 400 Мбайт
Продолжительность : 42 м. 28 с.
Общий поток : 1 317 Кбит/сек
Программа кодирования : VirtualDubMod 1.5.4.1 (build 2178/release)
Библиотека кодирования : VirtualDubMod build 2178/release
Видео
Идентификатор : 0
Формат : MPEG-4 Visual
Профиль формата : Advanced [email protected]
Настройки формата : BVOP1 / Custom Matrix
Параметр BVOP формата : 1
Параметр QPel формата : Нет
Параметр GMC формата : Без точки перехода
Параметр матрицы формата : Выборочная
Идентификатор кодека : XVID
Идентификатор кодека/Подсказка : XviD
Продолжительность : 42 м. 28 с.
Битрейт : 1 181 Кбит/сек
Ширина : 560 пикселей
Высота : 416 пикселей
Соотношение сторон : 4:3
Частота кадров : 25,000 кадров/сек
Цветовое пространство : YUV
Субдискретизация насыщенности : 4:2:0
Битовая глубина : 8 бит
Тип развёртки : Прогрессивная
Метод сжатия : С потерями
Бит/(Пиксели*Кадры) : 0.203
Размер потока : 359 Мбайт (90%)
Библиотека кодирования : XviD 1.2.0.dev47 (UTC 2006-11-01)
Аудио
Идентификатор : 1
Формат : MPEG Audio
Версия формата : Version 1
Профиль формата : Layer 3
Настройки формата : Joint stereo / MS Stereo
Идентификатор кодека : 55
Идентификатор кодека/Подсказка : MP3
Продолжительность : 42 м. 28 с.
Вид битрейта : Постоянный
Битрейт : 128 Кбит/сек
Каналы : 2 канала
Частота : 48,0 КГц
Частота кадров : 41,667 кадра/сек (1152 SPF)
Метод сжатия : С потерями
Размер потока : 38,9 Мбайт (10%)
Выравнивание : Соединение по промежуткам
Продолжительность промежутка : 80 мс. (2,00 видеокадра)
Время предзагрузки промежутка : 504 мс.
Библиотека кодирования : LAME3.97
Настройки программы : -m j -V 4 -q 2 -lowpass 17 -b 128
Скриншоты:
1 Серия SwatKiev

BigFan 2-8 серии
Прапорщик Шматко, или Ё-моё:
Прапорщик Шматко или Ё-Моё
Год выпуска: 2007
Количество серий: 16
Производство: Продюсерский центр ЛЕАН-М
Жанр: Сериал, Комедия, Драма
Продолжительность: 16 х ~ 00:45:00
Режиссёр: Владислав Николаев, Максим Василенко
Сценарий: Леонид Купридо, Андрей Чивурин, Валентин Иванов, Александр Кушнаренко
Композитор: ЮТА (Анна Семина), Николай Ростов
В ролях: Алексей Маклаков, Татьяна Кузнецова, Владимир Толоконников, Анна Большова, Виктор Логинов, Татьяна Кравченко, Илья Рутберг, Сергей Таланов, Ольга Юрасова, Виталий Альшанский, Ольга Юрасова, Владимир Комаров, Алексей Агопьян, Иван Агапов, Илья Белокобыльский, Павел Галич, Максим Мальцев, Василий Шевелилкин

Описание: Прихватив детей и тещу, легендарный прапорщик Шматко отправляется в Одессу, чтобы отыскать внезапно исчезнувшую жену. В приморском городе семья Шматко останавливается в типичной одесской коммунальной квартире у родственника прапорщика — дяди Жени. Одного взгляда на этого харизматичного персонажа достаточно, чтобы понять, кому обязан своим крылатым выражением «Ё-моё» начальник склада ГСМ...
Доп. информация: Смотреть между сериалами "Солдаты-11" и "Солдаты-12"
1-16 - море тв
Качество видео: WEB-DL
Формат: ts
Видео: MPEG4 Video (H264) 1876x1080 (33:19) 24fps [V: h264 high L4.1, yuv420p, 1876x1080]
Аудио: AAC 44100Hz stereo 142kbps [A: aac lc, 44100 Hz, stereo, 142 kb/s]
MediaInfo:
Общее
Идентификатор : 1 (0x1)
Полное имя : E:\Торренты (Temp)\Солдаты\Спин-офф\Прапорщик Шматко, или Ё-моё\Прапорщик Шматко, или Ё-моё. 1 серия.ts
Формат : MPEG-TS
Размер файла : 1,67 Гбайт
Продолжительность : 45 м. 18 с.
Режим общего битрейта : Переменный
Общий поток : 5 284 Кбит/сек
Видео
Идентификатор : 256 (0x100)
Идентификатор меню : 1 (0x1)
Формат : AVC
Формат/Информация : Advanced Video Codec
Профиль формата : [email protected]
Настройки формата : CABAC / 5 Ref Frames
Параметр CABAC формата : Да
Параметр RefFrames формата : 5 кадров
Идентификатор кодека : 27
Продолжительность : 45 м. 18 с.
Номинальный битрейт : 5 000 Кбит/сек
Ширина : 1 876 пикселей
Высота : 1 080 пикселей
Соотношение сторон : 1,737
Режим частоты кадров : Переменный
Цветовое пространство : YUV
Субдискретизация насыщенности : 4:2:0
Битовая глубина : 8 бит
Тип развёртки : Прогрессивная
Библиотека кодирования : x264 core 148
Настройки программы : cabac=1 / ref=5 / deblock=1:0:0 / analyse=0x3:0x113 / me=hex / subme=8 / psy=1 / psy_rd=1.00:0.00 / mixed_ref=1 / me_range=16 / chroma_me=1 / trellis=2 / 8x8dct=1 / cqm=0 / deadzone=21,11 / fast_pskip=1 / chroma_qp_offset=-2 / threads=34 / lookahead_threads=5 / sliced_threads=0 / nr=0 / decimate=1 / interlaced=0 / bluray_compat=0 / constrained_intra=0 / bframes=3 / b_pyramid=2 / b_adapt=1 / b_bias=0 / direct=3 / weightb=1 / open_gop=0 / weightp=2 / keyint=250 / keyint_min=24 / scenecut=0 / intra_refresh=0 / rc_lookahead=50 / rc=abr / mbtree=1 / bitrate=5000 / ratetol=1.0 / qcomp=0.60 / qpmin=0 / qpmax=69 / qpstep=4 / ip_ratio=1.40 / aq=1:1.00
Аудио
Идентификатор : 257 (0x101)
Идентификатор меню : 1 (0x1)
Формат : AAC LC
Формат/Информация : Advanced Audio Codec Low Complexity
Версия формата : Version 4
Режим смешивания : ADTS
Идентификатор кодека : 15-2
Продолжительность : 45 м. 18 с.
Вид битрейта : Переменный
Каналы : 2 канала
Channel layout : L R
Частота : 44,1 КГц
Частота кадров : 43,066 кадра/сек (1024 SPF)
Метод сжатия : С потерями
Задержка видео : -83 мс.
Скриншоты:
Бородин. Возвращение генерала:
Бородин. Возвращение генерала
Год выхода: 2008
Количество серий: 8
Жанр: криминальная драма
Продолжительность: 00:43:09
Режиссер: Влад Николаев
В ролях: Борис Щербаков, Егор Баринов, Сергей Селин, Татьяна Лютаева, Елена Валюшкина и др.

О фильме: «Бородин. Возвращение генерала» — это история подвигов генерала Бородина (полюбившегося телезрителям России и Украины по телесериалу «Солдаты») на малой родине во Владимирской области. Он едет в родную деревню Вязовое, где становится случайным свидетелем убийства. Обороняясь, Бородин смертельно ранит убийцу. Следствие выясняет, что официально убийца давно уже мертв — скончался несколько лет назад в тюрьме. Бородин становится участником детективной истории, в которой ему суждено поставить финальную точку.
Релиз: [email protected]
Качество: SATRip
Видео: 720x544 (1.32:1), 25 fps, XviD build 47 ~2132 kbps avg, 0.22 bit/pixel
Аудио: 48 kHz, MPEG Layer 3, 2 ch, ~128.00 kbps avg
MediaInfo:
Общее
Полное имя : E:\Торренты (Temp)\Солдаты\Спин-офф\Бородин. Возвращение генерала\Бородин. Возвращение генерала. 1 серия.avi
Формат : AVI
Формат/Информация : Audio Video Interleave
Размер файла : 700 Мбайт
Продолжительность : 43 м. 9 с.
Общий поток : 2 268 Кбит/сек
Программа кодирования : VirtualDubMod 1.5.4.1 (build 2178/release)
Библиотека кодирования : VirtualDubMod build 2178/release
Видео
Идентификатор : 0
Формат : MPEG-4 Visual
Профиль формата : Advanced [email protected]
Настройки формата : BVOP1 / Custom Matrix
Параметр BVOP формата : 1
Параметр QPel формата : Нет
Параметр GMC формата : Без точки перехода
Параметр матрицы формата : Выборочная
Идентификатор кодека : XVID
Идентификатор кодека/Подсказка : XviD
Продолжительность : 43 м. 9 с.
Битрейт : 2 133 Кбит/сек
Ширина : 720 пикселей
Высота : 544 пикселя
Соотношение сторон : 4:3
Частота кадров : 25,000 кадров/сек
Цветовое пространство : YUV
Субдискретизация насыщенности : 4:2:0
Битовая глубина : 8 бит
Тип развёртки : Прогрессивная
Метод сжатия : С потерями
Бит/(Пиксели*Кадры) : 0.218
Размер потока : 658 Мбайт (94%)
Библиотека кодирования : XviD 1.2.0.dev47 (UTC 2006-11-01)
Аудио
Идентификатор : 1
Формат : MPEG Audio
Версия формата : Version 1
Профиль формата : Layer 3
Настройки формата : Joint stereo / MS Stereo
Идентификатор кодека : 55
Идентификатор кодека/Подсказка : MP3
Продолжительность : 43 м. 9 с.
Вид битрейта : Постоянный
Битрейт : 128 Кбит/сек
Каналы : 2 канала
Частота : 48,0 КГц
Частота кадров : 41,667 кадра/сек (1152 SPF)
Метод сжатия : С потерями
Размер потока : 39,5 Мбайт (6%)
Выравнивание : Соединение по промежуткам
Продолжительность промежутка : 80 мс. (2,00 видеокадра)
Время предзагрузки промежутка : 504 мс.
Библиотека кодирования : LAME3.97b
Настройки программы : -m j -V 4 -q 2 -lowpass 17 -b 128
Скриншоты:
Колобков. Настоящий полковник!:
Колобков. Настоящий полковник
Год выпуска: 2007
Количество серий: 8
Жанр: Лирическая комедия
Продолжительность: ~00:45:00
Режиссер: Влад Николаев, Кира Ангелина
В ролях: Олег Осипов, Тимур Вайнштейн, Роман Мадянов, Анна Ардова, Наталья Гудкова, Александр Никулин, Александр Бабятинский, Александр Нестеров

Описание: В центре событий - уволенный в запас герой телесериала "Солдаты" полковник Колобков, занимающийся на "гражданке" риэлтерским бизнесом.
На личном фронте полковника разгораются настоящие страсти. Из тюрьмы возвращается его бывшая жена Вика, в совместной жизни с которой были и любовь, и предательство. Любовь Вики вновь входит в жизнь Колобкова, разрушая его отношения с гражданской супругой Валентиной, которая ждет ребенка...
Качество: DVDRip
Формат: AVI
Видео кодек: XviD
Аудио кодек: MP3
Видео: 640x464 (1.38:1), 25 fps, XviD MPEG-4 ~1169 kbps avg, 0.16 bit/pixel
Аудио: 48 kHz, MPEG Layer 3, 2 ch, ~96.00 kbps avg
MediaInfo:
Общее
Полное имя : E:\Торренты (Temp)\Солдаты\Спин-офф\Колобков. Настоящий полковник!\Колобков. Настоящий полковник!, 1 серия.avi
Формат : AVI
Формат/Информация : Audio Video Interleave
Размер файла : 400 Мбайт
Продолжительность : 43 м. 40 с.
Общий поток : 1 280 Кбит/сек
Программа кодирования : FairUse Wizard - http://fairusewizard.com
Библиотека кодирования : The best and REALLY easy backup tool
Видео
Идентификатор : 0
Формат : MPEG-4 Visual
Профиль формата : Advanced [email protected]
Настройки формата : BVOP1
Параметр BVOP формата : 1
Параметр QPel формата : Нет
Параметр GMC формата : Без точки перехода
Параметр матрицы формата : Default (MPEG)
Режим смешивания : Сжатый битовый поток
Идентификатор кодека : XVID
Идентификатор кодека/Подсказка : XviD
Продолжительность : 43 м. 40 с.
Битрейт : 1 175 Кбит/сек
Ширина : 640 пикселей
Высота : 464 пикселя
Соотношение сторон : 1,379
Частота кадров : 25,000 кадров/сек
Цветовое пространство : YUV
Субдискретизация насыщенности : 4:2:0
Битовая глубина : 8 бит
Тип развёртки : Прогрессивная
Метод сжатия : С потерями
Бит/(Пиксели*Кадры) : 0.158
Размер потока : 367 Мбайт (92%)
Библиотека кодирования : XviD 1.2.0.dev47 (UTC 2006-11-01)
Аудио
Идентификатор : 1
Формат : MPEG Audio
Версия формата : Version 1
Профиль формата : Layer 3
Настройки формата : Joint stereo / MS Stereo
Идентификатор кодека : 55
Идентификатор кодека/Подсказка : MP3
Продолжительность : 43 м. 40 с.
Вид битрейта : Постоянный
Битрейт : 96,0 Кбит/сек
Каналы : 2 канала
Частота : 48,0 КГц
Частота кадров : 41,667 кадра/сек (1152 SPF)
Метод сжатия : С потерями
Размер потока : 30,0 Мбайт (7%)
Выравнивание : Соединение по промежуткам
Продолжительность промежутка : 40 мс. (1,00 видеокадр)
Время предзагрузки промежутка : 504 мс.
Библиотека кодирования : LAME3.97b
Настройки программы : -m j -V 4 -q 2 -lowpass 16 -b 96
Скриншоты:
Морская душа:
Морская душа
Год выпуска: 2007
Количество серий: 32
Жанр: Лирическая комедия
Продолжительность: 32 x ~ 00:46:00
Режиссер: Дмитрий Федоров, Анна Зайцева
В ролях: Александр Воробьев, Михаил Жигалов, Вадим Колганов, Александр Мохов, Филипп Бажин, Владимир Бельдиян, Кирилл Грацинский, Анна Гуляренко, Григорий Данцигер, Андрей Кайков, Артем Лысков, Амаду Мамадаков, Сергей Мухин, Максим Пинскер, Сергей Пинчук, Марина Правкина, Любовь Руденко, Ольга Старченкова, Спартак Сумченко, Виктор Супрун, Владимир Тимофеев, Наталья Хорохорина, Елена Шахова, Александр Андриенко

Описание: Три молодых парня, недавно отслуживших в ВМФ, по контракту попадают на уникальный корабль - тральщик "Владимир", работающий по спецзаданиям во всех водах и всех широтах. Они становятся «морскими спасателями». У каждого из героев за спиной — личная история, у каждого — свои мотивы оказаться здесь, и каждому из них теперь нужно доказать товарищам по команде, что они чего-то стоят, отстоять свое право называться моряками. Команда тральщика постоянно попадает во всевозможные приключения - моряки спасают потерпевших кораблекрушение, выручают соотечественников в других странах, отражают нападения пиратов, противостоят «чёрным» дайверам и наркоторговцам. Отважные и мужественные герои, готовы в любой момент прийти на помощь, нередко жертвуют теплом и уютом сухопутного быта, а порой и собственной жизнью, становятся воплощением силы духа и истинно мужского характера.
Качество: DVDRip
Формат: AVI
Видео кодек: DivX
Аудио кодек: AC3
Видео: 704x384 (1.83:1), 25 fps, DivX Codec 5.2.1 build 1328, 1425 kbps avg, 0.21 bit/pixel
Аудио: 48 kHz, AC3 Dolby Digital, 2/0 (L,R) ch, 192.00 kbps avg
MediaInfo:
Общее
Полное имя : E:\Торренты\Солдаты\Спин-офф\Морская душа\Морская душа. 1 серия.avi
Формат : AVI
Формат/Информация : Audio Video Interleave
Размер файла : 540 Мбайт
Продолжительность : 46 м. 26 с.
Общий поток : 1 627 Кбит/сек
Программа кодирования : VirtualDubMod 1.5.10.2 (build 2540/release)
Библиотека кодирования : VirtualDubMod build 2540/release
Видео
Идентификатор : 0
Формат : MPEG-4 Visual
Настройки формата : BVOP1
Параметр BVOP формата : 1
Параметр QPel формата : Нет
Параметр GMC формата : Без точки перехода
Параметр матрицы формата : Default (H.263)
Режим смешивания : Сжатый битовый поток
Идентификатор кодека : DX50
Идентификатор кодека/Подсказка : DivX 5
Продолжительность : 46 м. 26 с.
Битрейт : 1 425 Кбит/сек
Номинальный битрейт : 6 951 Кбит/сек
Ширина : 704 пикселя
Высота : 384 пикселя
Соотношение сторон : 1,85:1
Частота кадров : 25,000 кадров/сек
Цветовое пространство : YUV
Субдискретизация насыщенности : 4:2:0
Битовая глубина : 8 бит
Тип развёртки : Прогрессивная
Метод сжатия : С потерями
Бит/(Пиксели*Кадры) : 0.211
Размер потока : 473 Мбайт (88%)
Библиотека кодирования : DivX 5.2.1 (WaffleDay) (UTC 2004-09-08)
Аудио
Идентификатор : 1
Формат : AC-3
Формат/Информация : Audio Coding 3
Коммерческое название : Dolby Digital
Идентификатор кодека : 2000
Продолжительность : 46 м. 26 с.
Вид битрейта : Постоянный
Битрейт : 192 Кбит/сек
Каналы : 2 канала
Channel layout : L R
Частота : 48,0 КГц
Частота кадров : 31,250 кадров/сек (1536 SPF)
Метод сжатия : С потерями
Размер потока : 63,8 Мбайт (12%)
Выравнивание : Разделение по промежуткам
Продолжительность промежутка : 40 мс. (1,00 видеокадр)
Время предзагрузки промежутка : 500 мс.
Service kind : Complete Main
Скриншоты:
Солдаты. Новый год, твою дивизию:
Солдаты. Новый год, твою дивизию
Год выпуска: 2007
Количество серий: 2
Жанр: Мюзикл
Продолжительность: 00:45:00
Режиссер: Фёдор Краснопёров, Владислав Николаев
В ролях: Борис Щербаков, Роман Мадянов, Иван Моховиков, Вячеслав Гришечкин, Игнат Акрачков, Анатолий Кощеев, Анна Ардова, Ольга Фадеева, Виталий Абдулов, Павел Галич

Описание: Эта необычайная история начинается в части. Всех будит сигнал боевой тревоги, по которому солдаты и офицеры мгновенно просыпаются и отправляются на спасение Родины. Но никто не знает, куда именно. Стоит отметить, что всё это происходит в новогоднюю ночь. И вот по заснеженному лесу в кромешной темноте среди вековых елей наши герои едут в «шишиге» на спецзадание… на узкой колее виден только лишь свет фар…
Спустя некоторое время они прибывают к затерянному в лесу бункеру… Что же за спецзадание может быть в новогоднюю ночь, недоумевают они? Помимо всего прочего, оказывается, что впопыхах забыли прапорщика Данилыча, рядового Погосяна и медсестру Дашу. А эти трое, решив догнать уехавших, пытаются добраться до места сами и теряются в ночном лесу… Чем же закончится это приключение, ведь до Нового года остается совсем мало времени?
1-2 море тв
Качество видео: WEB-DL
Формат: ts
Видео: MPEG4 Video (H264) 1920x1080 24fps [V: h264 high L4.1, yuv420p, 1920x1080]
Аудио: AAC 44100Hz stereo 146kbps [A: aac lc, 44100 Hz, stereo, 146 kb/s]
MediaInfo:
Общее
Идентификатор : 1 (0x1)
Полное имя : E:\Торренты\Солдаты\Спин-офф\Солдаты. Новый год, твою дивизию\Солдаты. Новый год, твою дивизию! (1 спецсерия 14 сезона).ts
Формат : MPEG-TS
Размер файла : 1,69 Гбайт
Продолжительность : 45 м. 54 с.
Режим общего битрейта : Переменный
Общий поток : 5 285 Кбит/сек
Видео
Идентификатор : 256 (0x100)
Идентификатор меню : 1 (0x1)
Формат : AVC
Формат/Информация : Advanced Video Codec
Профиль формата : [email protected]
Настройки формата : CABAC / 5 Ref Frames
Параметр CABAC формата : Да
Параметр RefFrames формата : 5 кадров
Идентификатор кодека : 27
Продолжительность : 45 м. 54 с.
Номинальный битрейт : 5 000 Кбит/сек
Ширина : 1 920 пикселей
Высота : 1 080 пикселей
Соотношение сторон : 16:9
Режим частоты кадров : Переменный
Цветовое пространство : YUV
Субдискретизация насыщенности : 4:2:0
Битовая глубина : 8 бит
Тип развёртки : Прогрессивная
Библиотека кодирования : x264 core 148
Настройки программы : cabac=1 / ref=5 / deblock=1:0:0 / analyse=0x3:0x113 / me=hex / subme=8 / psy=1 / psy_rd=1.00:0.00 / mixed_ref=1 / me_range=16 / chroma_me=1 / trellis=2 / 8x8dct=1 / cqm=0 / deadzone=21,11 / fast_pskip=1 / chroma_qp_offset=-2 / threads=34 / lookahead_threads=5 / sliced_threads=0 / nr=0 / decimate=1 / interlaced=0 / bluray_compat=0 / constrained_intra=0 / bframes=3 / b_pyramid=2 / b_adapt=1 / b_bias=0 / direct=3 / weightb=1 / open_gop=0 / weightp=2 / keyint=250 / keyint_min=24 / scenecut=0 / intra_refresh=0 / rc_lookahead=50 / rc=abr / mbtree=1 / bitrate=5000 / ratetol=1.0 / qcomp=0.60 / qpmin=0 / qpmax=69 / qpstep=4 / ip_ratio=1.40 / aq=1:1.00
Аудио
Идентификатор : 257 (0x101)
Идентификатор меню : 1 (0x1)
Формат : AAC LC
Формат/Информация : Advanced Audio Codec Low Complexity
Версия формата : Version 4
Режим смешивания : ADTS
Идентификатор кодека : 15-2
Продолжительность : 45 м. 54 с.
Вид битрейта : Переменный
Каналы : 2 канала
Channel layout : L R
Частота : 44,1 КГц
Частота кадров : 43,066 кадра/сек (1024 SPF)
Метод сжатия : С потерями
Задержка видео : -250 мс.
Скриншоты:
Солдаты. Наизнанку (Фильм о фильме):
Солдаты. Наизнанку
Год выпуска: 2006
Количество серий: 5
Жанр: Фильм о фильме
Продолжительность: 5x43:00
Режиссер: Максим Василенко
В ролях: Актеры и создатели фильма
Описание: Авторы многосерийного фильма «Солдаты. Наизнанку» включили в свое повествование интересные переплетения судеб реальных и вымышленных, лучшие эпизоды сериала и ситуации, не вошедшие в кадр, настоящую любовь и битву самолюбий, фанов и поклонников – в общем все то, что так или иначе произвела на свет эта сложная махина под названием «Солдаты».
В фильме «Солдаты. Наизнанку» принимают участие: продюсеры и сценаристы, режиссеры и практически все актеры, которые снимаются или снимались в разное время в сериале «Солдаты». Им всем есть, что рассказать. В интервью создателям этого многосерийного фильма каждый из актеров рассказывает о том, что запомнилось на съемках, о том, какой – сложной или не очень, веселой или драматичной – оказалась для них «служба» в одном из самых популярных телевизионных проектов российского телевидения.
Качество: SATRip
Формат: AVI
Видео кодек: XviD
Аудио кодек: MP3
Видео: 512x384 (1.33:1), 25 fps, XviD MPEG-4 ~1028 kbps avg, 0.21 bit/pixel
Аудио: 44.100 kHz, MPEG Layer 3, 2 ch, ~96.00 kbps avg
MediaInfo:
Общее
Полное имя : E:\Торренты\Солдаты\Спин-офф\Солдаты. Наизнанку (Фильм о фильме)\Солдаты. Наизнанку. 1 серия. Без дубля.avi
Формат : AVI
Формат/Информация : Audio Video Interleave
Размер файла : 350 Мбайт
Продолжительность : 43 м. 5 с.
Общий поток : 1 135 Кбит/сек
Программа кодирования : VirtualDubMod 1.5.10.2 (build 2540/release)
Библиотека кодирования : VirtualDubMod build 2540/release
Видео
Идентификатор : 0
Формат : MPEG-4 Visual
Профиль формата : Advanced [email protected]
Настройки формата : BVOP1
Параметр BVOP формата : 1
Параметр QPel формата : Нет
Параметр GMC формата : Без точки перехода
Параметр матрицы формата : Default (H.263)
Режим смешивания : Сжатый битовый поток
Идентификатор кодека : XVID
Идентификатор кодека/Подсказка : XviD
Продолжительность : 43 м. 5 с.
Битрейт : 1 029 Кбит/сек
Ширина : 512 пикселей
Высота : 384 пикселя
Соотношение сторон : 4:3
Частота кадров : 25,000 кадров/сек
Цветовое пространство : YUV
Субдискретизация насыщенности : 4:2:0
Битовая глубина : 8 бит
Тип развёртки : Прогрессивная
Метод сжатия : С потерями
Бит/(Пиксели*Кадры) : 0.209
Размер потока : 317 Мбайт (91%)
Библиотека кодирования : XviD 1.1.0 (UTC 2005-11-22)
Аудио
Идентификатор : 1
Формат : MPEG Audio
Версия формата : Version 1
Профиль формата : Layer 3
Настройки формата : Joint stereo / MS Stereo
Идентификатор кодека : 55
Идентификатор кодека/Подсказка : MP3
Продолжительность : 43 м. 5 с.
Вид битрейта : Постоянный
Битрейт : 96,0 Кбит/сек
Каналы : 2 канала
Частота : 44,1 КГц
Метод сжатия : С потерями
Размер потока : 29,6 Мбайт (8%)
Выравнивание : Разделение по промежуткам
Продолжительность промежутка : 40 мс. (1,00 видеокадр)
Время предзагрузки промежутка : 500 мс.
Библиотека кодирования : LAME3.90.3
Скриншоты"
Благодарности:
Выражаю благодарность: Корнеев (nnmclub) за пример оформления раздачи, официальному каналу Ютуб за обновление некоторых серий сериала, релиз-группе [email protected] за некотрые Спин-оффы, а такжже оромная благодарность интернет платформе "more.tv" за бесплатный 7ми дневный доступ который позволил обновить львиную долю сериала.
релиз by nickson-82


Последний раз редактировалось: nickson-82 (2021-05-12 09:46), всего редактировалось 5 раз(а)
[Профиль] [ЛС]

nickson-82 ®

Стаж: 8 лет 4 месяца

Сообщений: 11545

Создавать темы 12-Апр-2021 16:55 (спустя 1 день 5 часов)

[Цитировать]

Раздаю до 18 апреля на скорости 1 гигабит, потом в отпуск, вернусь на раздачу после майских.
[Профиль] [ЛС]
Показать сообщения:    
Ответить на тему

Текущее время: 13-Июн 21:35

Часовой пояс: UTC + 3



Вы не можете начинать темы
Вы не можете отвечать на сообщения
Вы не можете редактировать свои сообщения
Вы не можете удалять свои сообщения
Вы не можете голосовать в опросах
Вы не можете прикреплять файлы к сообщениям
Вы не можете скачивать файлы