Атомные самураи / フクシマフィフティ / Fukushima 50 (Сэцуро Вакамацу / Setsuro Wakamatsu) [2020, Япония, Драма, биография, история, BDRemux 1080p] MVO ([@[email protected]]) + Sub Eng + Original Jpn

Ответить на тему
 
Автор Сообщение

Direktor_49 ®

Стаж: 4 года 7 месяцев

Сообщений: 598

Создавать темы 25-Дек-2020 19:23

[Цитировать]

Атомные самураи / フクシマフィフティ / Fukushima 50
Страна: Япония
Жанр: Драма, биография, история
Год выпуска: 2020
Продолжительность: 01:57:06
Перевод: Любительский (многоголосый закадровый) [@[email protected]]
Субтитры: Китайский, английские
Оригинальная аудиодорожка: японский
Режиссер: Сэцуро Вакамацу / Setsuro Wakamatsu
В ролях: Коити Сато, Кэн Ватанабэ, Хидэтака Ёсиока, Наруми Ясуда, Наото Огата, Сёхэи Хино, Мицуру Хирата, Масато Хагивара, Рихо Ёсиока, Такуми Саито
Описание: История о ликвидаторах аварии на АЭС Фукусима-1 после землетрясения у восточного побережья острова Хонсю в Японии 11 марта 2011 года, также известного как Великое восточно-японское землетрясение. Как руководству станции, так и обычным сотрудникам предстоит принять ряд важных решений и бороться с мирным атомом ценой собственных жизней.
Тип релиза: BDRemux 1080p
Контейнер: MKV
Видео: MPEG-4 AVC, 28 Мбит/с, 1920x1080, 24 Кадр/с
Аудио: Русский (AC3, 2 ch, 256 Кбит/с)
Аудио 2: Японский (TrueHD, 6 ch, 2959 Кбит/с)
Аудио 3: Японский (AC3, 6 ch, 640 Кбит/с)
Аудио 4: Японский (AC3 Dolby Surround EX, 6 ch, 640 Кбит/с)
Формат субтитров: prerendered (Blu-ray/PGS/SUP)
MediaInfo
Полное имя : Fukushima.50.2020.BluRay.1080p.AVC.REMUX.mkv
Формат : Matroska
Версия формата : Version 4 / Version 2
Размер файла : 20,9 Гбайт
Продолжительность : 1 ч. 57 м.
Режим общего битрейта : Переменный
Общий поток : 25,6 Мбит/сек
Название фильма : Fukushima 50
Дата кодирования : UTC 2020-10-11 05:38:55
Программа кодирования : mkvmerge v47.0.0 ('Black Flag') 32-bit
Библиотека кодирования : libebml v1.3.10 + libmatroska v1.5.2
Носитель оригинала : Blu-ray
Обложка : Yes
Attachments : cover.jpg
Видео
Идентификатор : 1
ID in the original source medium : 4113 (0x1011)
Формат : AVC
Формат/Информация : Advanced Video Codec
Профиль формата : [email protected]
Параметр CABAC формата : Да
Параметр ReFrames формата : 4 кадра
Идентификатор кодека : V_MPEG4/ISO/AVC
Продолжительность : 1 ч. 57 м.
Вид битрейта : Переменный
Битрейт : 21,0 Мбит/сек
Максимальный битрейт : 28,0 Мбит/сек
Ширина : 1920 пикселей
Высота : 1080 пикселей
Соотношение сторон : 16:9
Режим частоты кадров : Постоянный
Частота кадров : 24,000 кадра/сек
Стандарт вещания : NTSC
Цветовое пространство : YUV
Субдискретизация насыщенности : 4:2:0
Битовая глубина : 8 бит
Тип развёртки : Прогрессивная
Бит/(Пиксели*Кадры) : 0.422
Размер потока : 17,2 Гбайт (82%)
Default : Да
Forced : Нет
Цветовой диапазон : Limited
Основные цвета : BT.709
Характеристики трансфера : BT.709
Коэффициенты матрицы : BT.709
Аудио #1
Идентификатор : 2
Формат : AC-3
Формат/Информация : Audio Coding 3
Расширение режима : CM (complete main)
Параметр Endianness формата : Big
Идентификатор кодека : A_AC3
Продолжительность : 1 ч. 57 м.
Вид битрейта : Постоянный
Битрейт : 256 Кбит/сек
Каналы : 2 канала
Расположение каналов : Front: L R
Частота : 48,0 КГц
Частота кадров : 31,250 кадров/сек (1536 spf)
Битовая глубина : 16 бит
Метод сжатия : С потерями
Размер потока : 214 Мбайт (1%)
Заголовок : Любительский (многоголосый) [@[email protected]]
Язык : Russian
Default : Да
Forced : Да
Аудио #2
Идентификатор : 3
ID in the original source medium : 4352 (0x1100)
Формат : TrueHD
Идентификатор кодека : A_TRUEHD
Продолжительность : 1 ч. 57 м.
Вид битрейта : Переменный
Битрейт : 2959 Кбит/сек
Максимальный битрейт : 5562 Кбит/сек
Каналы : 6 каналов
Расположение каналов : Front: L C R, Side: L R, LFE
Частота : 96,0 КГц
Частота кадров : 2400,000 кадров/сек (40 spf)
Метод сжатия : Без потерь
Размер потока : 2,42 Гбайт (12%)
Язык : Japanese
Default : Нет
Forced : Нет
Аудио #3
Идентификатор : 4
ID in the original source medium : 4352 (0x1100)
Формат : AC-3
Формат/Информация : Audio Coding 3
Расширение режима : CM (complete main)
Параметр Endianness формата : Big
Идентификатор кодека : A_AC3
Продолжительность : 1 ч. 57 м.
Вид битрейта : Постоянный
Битрейт : 640 Кбит/сек
Каналы : 6 каналов
Расположение каналов : Front: L C R, Side: L R, LFE
Частота : 48,0 КГц
Частота кадров : 31,250 кадров/сек (1536 spf)
Битовая глубина : 16 бит
Метод сжатия : С потерями
Размер потока : 536 Мбайт (2%)
Язык : Japanese
Default : Нет
Forced : Нет
Аудио #4
Идентификатор : 5
ID in the original source medium : 4353 (0x1101)
Формат : AC-3
Формат/Информация : Audio Coding 3
Расширение режима : CM (complete main)
Параметр Endianness формата : Big
Идентификатор кодека : A_AC3
Продолжительность : 1 ч. 57 м.
Вид битрейта : Постоянный
Битрейт : 640 Кбит/сек
Каналы : 6 каналов
Расположение каналов : Front: L C R, Side: L R, LFE
Частота : 48,0 КГц
Частота кадров : 31,250 кадров/сек (1536 spf)
Битовая глубина : 16 бит
Метод сжатия : С потерями
Размер потока : 536 Мбайт (2%)
Язык : Japanese
Default : Нет
Forced : Нет
Текст #1
Идентификатор : 6
ID in the original source medium : 4608 (0x1200)
Формат : PGS
Режим смешивания : zlib
Идентификатор кодека : S_HDMV/PGS
Идентификатор кодека/Информация : Picture based subtitle format used on BDs/HD-DVDs
Продолжительность : 1 ч. 56 м.
Битрейт : 31,7 Кбит/сек
Count of elements : 3087
Размер потока : 26,4 Мбайт (0%)
Язык : Chinese
Default : Нет
Forced : Нет
Текст #2
Идентификатор : 7
ID in the original source medium : 4609 (0x1201)
Формат : PGS
Режим смешивания : zlib
Идентификатор кодека : S_HDMV/PGS
Идентификатор кодека/Информация : Picture based subtitle format used on BDs/HD-DVDs
Продолжительность : 1 ч. 56 м.
Битрейт : 38,6 Кбит/сек
Count of elements : 3157
Размер потока : 32,1 Мбайт (0%)
Язык : English
Default : Нет
Forced : Нет
Меню
00:00:00.000 : en:Глава 01
00:05:16.791 : en:Глава 02
00:11:51.250 : en:Глава 03
00:17:44.708 : en:Глава 04
00:24:26.708 : en:Глава 05
00:29:24.666 : en:Глава 06
00:35:41.208 : en:Глава 07
00:41:54.958 : en:Глава 08
00:48:39.166 : en:Глава 09
00:54:16.791 : en:Глава 10
00:59:15.500 : en:Глава 11
01:06:15.125 : en:Глава 12
01:11:51.333 : en:Глава 13
01:18:07.750 : en:Глава 14
01:23:33.458 : en:Глава 15
01:29:18.708 : en:Глава 16
01:35:21.791 : en:Глава 17
01:40:27.208 : en:Глава 18
01:45:02.541 : en:Глава 19
01:52:25.791 : en:Глава 20
Скриншоты

_________________
Подпись отключена за нарушение правил форума
[Профиль] [ЛС]
Показать сообщения:    
Ответить на тему

Текущее время: 18-Июн 14:10

Часовой пояс: UTC + 3



Вы не можете начинать темы
Вы не можете отвечать на сообщения
Вы не можете редактировать свои сообщения
Вы не можете удалять свои сообщения
Вы не можете голосовать в опросах
Вы не можете прикреплять файлы к сообщениям
Вы не можете скачивать файлы