[RUS] (Поп-фолк) [CD] Антонина Денискина и ансамбль То, что надо! - Бывали дни весёлые - 1996, FLAC (image+.cue), lossless

Ответить на тему
 
Автор Сообщение

Direktor_49 ®

Стаж: 4 года 2 месяца

Сообщений: 633

Создавать темы 23-Дек-2020 14:16

[Цитировать]

Антонина Денискина и ансамбль То, что надо! / Бывали дни весёлые
Жанр: Поп-фолк
Носитель: CD
Страна-производитель диска (релиза): Sweden
Год издания: 1996
Издатель (лейбл): Монолит
Номер по каталогу: МТ037-1
Страна исполнителя (группы): Россия
Аудиокодек: FLAC (*.flac)
Тип рипа: image+.cue
Продолжительность: 00:50:13
Источник: собственный рип
Наличие сканов в содержимом раздачи: да
Треклист:
01. Бывали дни весёлые
02. Каким ты был
03. Однажды морем я плыла
04. Хас-Булат удалой
05. Терские частушки
06. Степь да степь кругом
07. Коробушка
08. Горит костер
09. Вот кто-то с горочки спустился
10. Конфетки-бараночки
11. Как служил солдат...
12. Посею лебеду
13. Бродяга
14. Страдания
Лог создания рипа
[pre]Exact Audio Copy V1.3 from 2. September 2016
Отчёт EAC об извлечении, выполненном 10. ноября 2020, 21:43
Антонина Денискина и ансамбль То, что надо! / Бывали дни весёлые
Дисковод: ASUS DRW-24D5MT Adapter: 1 ID: 0
Режим чтения : Достоверность
Использование точного потока : Да
Отключение кэша аудио : Да
Использование указателей C2 : Нет
Коррекция смещения при чтении : 6
Способность читать области Lead-in и Lead-out : Нет
Заполнение пропущенных сэмплов тишиной : Да
Удаление блоков с тишиной в начале и конце : Нет
При вычислениях CRC использовались нулевые сэмплы : Да
Интерфейс : Встроенный Win32-интерфейс для Win NT/2000
Выходной формат : Пользовательский кодировщик
Выбранный битрейт : 128 kBit/s
Качество : Высокий
Добавление ID3-тега : Нет
Утилита сжатия : C:\Program Files (x86)\Exact Audio Copy\Flac\flac.exe
Дополнительные параметры : -8 -V -T "TITLE=%title%" -T "ARTIST=%artist%" -T "ALBUMARTIST=%albumartist%" -T "ALBUM=%albumtitle%" -T "DATE=%year%" -T "TRACKNUMBER=%tracknr%" -T "TRACKTOTAL=%numtracks%" -T "GENRE=%genre%" -T "COMMENT=%comment%" -T "PERFORMER=%albuminterpret%" -T "COMPOSER=%composer%" %source% -o %dest%
TOC извлечённого CD
Трек | Старт | Длительность | Начальный сектор | Конечный сектор
---------------------------------------------------------------------
1 | 0:00.00 | 3:14.40 | 0 | 14589
2 | 3:14.40 | 3:16.27 | 14590 | 29316
3 | 6:30.67 | 3:39.43 | 29317 | 45784
4 | 10:10.35 | 5:12.25 | 45785 | 69209
5 | 15:22.60 | 3:26.60 | 69210 | 84719
6 | 18:49.45 | 3:16.52 | 84720 | 99471
7 | 22:06.22 | 3:04.10 | 99472 | 113281
8 | 25:10.32 | 4:13.35 | 113282 | 132291
9 | 29:23.67 | 2:53.10 | 132292 | 145276
10 | 32:17.02 | 3:56.60 | 145277 | 163036
11 | 36:13.62 | 4:30.13 | 163037 | 183299
12 | 40:44.00 | 2:39.02 | 183300 | 195226
13 | 43:23.02 | 3:37.58 | 195227 | 211559
14 | 47:00.60 | 3:12.20 | 211560 | 225979
Характеристики диапазона извлечения и сообщения об ошибках
Выбранный диапазон
Имя файла E:\Раздачи\Папки\Антонина Денискина и ансамбль То, что надо! - Бывали дни весёлые (1996)\Антонина Денискина и ансамбль То, что надо! - Бывали дни весёлые.wav
Пиковый уровень 94.4 %
Скорость извлечения 1.7 X
Качество диапазона 100.0 %
CRC теста 20CC5646
CRC копии 20CC5646
Копирование... OK
Ошибок не произошло
AccurateRip: сводка
Трек 1 : извлечено точно (доверие 1) [CBC3A532] (AR v2)
Трек 2 : извлечено точно (доверие 1) [227976A2] (AR v2)
Трек 3 : извлечено точно (доверие 1) [C5893360] (AR v2)
Трек 4 : извлечено точно (доверие 1) [0570C125] (AR v2)
Трек 5 : извлечено точно (доверие 1) [D680CB45] (AR v2)
Трек 6 : извлечено точно (доверие 1) [7FB821BF] (AR v2)
Трек 7 : извлечено точно (доверие 1) [EF2CAA12] (AR v2)
Трек 8 : извлечено точно (доверие 1) [FF4B0AA3] (AR v2)
Трек 9 : извлечено точно (доверие 1) [40A85E73] (AR v2)
Трек 10 : извлечено точно (доверие 1) [AEA3E21F] (AR v2)
Трек 11 : извлечено точно (доверие 1) [F6D30944] (AR v2)
Трек 12 : извлечено точно (доверие 1) [B2B3CE3F] (AR v2)
Трек 13 : извлечено точно (доверие 1) [3DCC3400] (AR v2)
Трек 14 : извлечено точно (доверие 1) [EED2F0DF] (AR v2)
Все треки извлечены точно
Конец отчёта
==== Контрольная сумма отчёта 51E845F1DC6EF1EE72E91CF013454A0938827839C9F56E7D0E80BC8EBB6C4D99 ====

_________________
Подпись отключена за нарушение правил форума
[Профиль] [ЛС]
Показать сообщения:    
Ответить на тему

Текущее время: 24-Янв 02:29

Часовой пояс: UTC + 3



Вы не можете начинать темы
Вы не можете отвечать на сообщения
Вы не можете редактировать свои сообщения
Вы не можете удалять свои сообщения
Вы не можете голосовать в опросах
Вы не можете прикреплять файлы к сообщениям
Вы не можете скачивать файлы