Тролль: История с хвостом / Troll: The Tale of a Tail (2018) BDRip-AVC | Лицензия

Ответить на тему
 
Автор Сообщение

RapTor ®

Стаж: 7 лет 2 месяца

Сообщений: 147

Создавать темы 25-Ноя-2020 12:24

[Цитировать]

Тролль: История с хвостом / Troll: The Tale of a Tail (2018) Информация
Название: Тролль: История с хвостом
Оригинальное название: Troll: The Tale of a Tail
Год выхода: 2018
Жанр: Мультфильм, фэнтези, приключения, семейный
Режиссер: Кевин Манро, Кристиан Кэмп
Роли озвучивают: Адам Незеркотт, Ричард Дюмон, Соня Болл, Уайатт Бауэн, Марк Камачо, Элана Дункельман, Анджела Галуппо, Стефан Готье, Рик Джонс, Терренс Скаммелл
Описание:
Далеко-далеко, в дремучем лесу есть маленькое королевство троллей. Случилась беда, во время забега сильнейших король Гром попал в капкан и обратился в камень. На трон взошёл его злой брат… Юный принц Трим, сын короля Грома, может спасти своего отца и всё королевство, но для этого он должен отправиться в опасное путешествие в мир людей.

Страна: Норвегия, Канада
Студия: Sagatoon AS
Продолжительность: 01:30:33
Перевод: Дублированный | Лицензия Blu-Ray RUS
Файл
Формат: MKV
Качество: BDRip-AVC
Источник: |TROLL_TTOAT_2018_RUS_BLUEBIRD|
Видео: 720x302 (2.40:1), 24 fps, x264 ~1077 kbps avg, 0.206 bit/pixel
Звук: 48 kHz, HE-AAC, 2 ch, ~72 kbps avg
Субтитры: Отсутствуют
MediaInfo:
Format : Matroska
Format version : Version 4
File size : 745 MiB
Duration : 1 h 30 min
Overall bit rate : 1 150 kb/s
Movie name : Тролль: История с хвостом / Troll: The Tale of a Tail (2018) BDRip(AVC) OlLanDGroup#Skandar
Encoded date : UTC 2020-10-08 09:29:06
Writing application : mkvmerge v31.0.0 ('Dolores In A Shoestand') 64-bit
Writing library : libebml v1.3.6 + libmatroska v1.4.9
Cover : Yes
Attachments : Cover - Troll.The.Tale.Of.A.Tail.png
Video
ID : 1
Format : AVC
Format/Info : Advanced Video Codec
Format profile : [email protected]
Format settings : CABAC / 10 Ref Frames
Format settings, CABAC : Yes
Format settings, ReFrames : 10 frames
Codec ID : V_MPEG4/ISO/AVC
Duration : 1 h 30 min
Bit rate : 1 077 kb/s
Width : 720 pixels
Height : 302 pixels
Display aspect ratio : 2.40:1
Frame rate mode : Constant
Frame rate : 24.000 FPS
Color space : YUV
Chroma subsampling : 4:2:0
Bit depth : 8 bits
Scan type : Progressive
Bits/(Pixel*Frame) : 0.206
Stream size : 696 MiB (94%)
Title : Тролль: История с хвостом / Troll: The Tale of a Tail (2018) BDRip(AVC) OlLanDGroup#Skandar
Writing library : x264 core 146 r2538 121396c
Encoding settings : cabac=1 / ref=10 / deblock=1:-3:-3 / analyse=0x3:0x133 / me=umh / subme=11 / psy=1 / psy_rd=0.97:0.05 / mixed_ref=1 / me_range=48 / chroma_me=1 / trellis=2 / 8x8dct=1 / cqm=0 / deadzone=21,11 / fast_pskip=0 / chroma_qp_offset=-3 / threads=6 / lookahead_threads=1 / sliced_threads=0 / nr=0 / decimate=0 / interlaced=0 / bluray_compat=0 / constrained_intra=0 / bframes=11 / b_pyramid=2 / b_adapt=2 / b_bias=0 / direct=3 / weightb=1 / open_gop=0 / weightp=2 / keyint=240 / keyint_min=23 / scenecut=40 / intra_refresh=0 / rc_lookahead=40 / rc=2pass / mbtree=0 / bitrate=1077 / ratetol=1.0 / qcomp=0.60 / qpmin=0 / qpmax=69 / qpstep=4 / cplxblur=20.0 / qblur=0.5 / vbv_maxrate=50000 / vbv_bufsize=62500 / nal_hrd=none / filler=0 / ip_ratio=1.40 / pb_ratio=1.30 / aq=1:1.00
Language : English
Default : Yes
Forced : No
Audio
ID : 2
Format : AAC LC SBR
Format/Info : Advanced Audio Codec Low Complexity with Spectral Band Replication
Commercial name : HE-AAC
Format settings : Explicit
Codec ID : A_AAC-2
Duration : 1 h 30 min
Bit rate : 72.0 kb/s
Channel(s) : 2 channels
Channel layout : L R
Sampling rate : 48.0 kHz
Frame rate : 23.438 FPS (2048 SPF)
Compression mode : Lossy
Delay relative to video : 31 ms
Stream size : 46.6 MiB (6%)
Title : DUB | Лицензия Blu-Ray RUS
Language : Russian
Default : Yes
Forced : No
Menu
00:00:00.000 : en:Chapter 01
00:00:45.833 : en:Chapter 02
00:09:43.125 : en:Chapter 03
00:17:54.750 : en:Chapter 04
00:25:39.125 : en:Chapter 05
00:35:28.291 : en:Chapter 06
00:43:36.708 : en:Chapter 07
00:51:41.916 : en:Chapter 08
00:59:11.291 : en:Chapter 09
01:07:55.333 : en:Chapter 10
01:16:43.750 : en:Chapter 11
Скриншоты
[Профиль] [ЛС]
Показать сообщения:    
Ответить на тему

Текущее время: 22-Янв 00:00

Часовой пояс: UTC + 3



Вы не можете начинать темы
Вы не можете отвечать на сообщения
Вы не можете редактировать свои сообщения
Вы не можете удалять свои сообщения
Вы не можете голосовать в опросах
Вы не можете прикреплять файлы к сообщениям
Вы не можете скачивать файлы